Подписывайся на наш канал в Telegram https://t.me/torrentok и получи доступ к торрентам без ограничений!
. bolt.mmix.club
Авторские права
con...@...Показать
Вход на сайт
Логин:
Пароль:
 
Навигация по сайту
Популярные статьи

Торрент трекер | Скачать торрент | Скачать через Торрент | Скачать торрент бесплатно | Скачать торрент без регистрации Фильмы торрент скачать Дело Ричарда Джуэлла / Richard Jewell (2019) BDRip [H.264 / 720p] торрент скачать бесплатно

Дело Ричарда Джуэлла / Richard Jewell (2019) BDRip [H.264 / 720p] торрент скачать бесплатно

Фильмы торрент скачать
Дело Ричарда Джуэлла / Richard Jewell (2019) BDRip [H.264 / 720p]Производство: США/Appian Way, Misher Films, 75 Year Plan Productions
Жанр: Драма, биография
Режиссер: Клинт Иствуд
Продюсер: Andy Berman, Дэвид М. Бернштейн, Дженнифер Дэвиссон

Актеры
Пол Уолтер Хаузер, Сэм Рокуэлл, Кэти Бейтс, Джон Хэмм, Оливия Уайлд, Нина Арианда, Иэн Гомес, Уэйн Дювалл, Дилан Кассман, Майк Пневски

Описание

История Ричарда Джуэлла, который работал охранником на Олимпийских играх 1996 года в Атланте и, заметив рюкзак с бомбой, сумел вовремя эвакуировать людей. Однако всеобщая благодарность длилась недолго: через несколько дней Джуэлл сам превратился в главного подозреваемого и жертву уничижительной травли со стороны СМИ.


Возраст: 18+ (зрителям, достигшим 18 лет. запрещено для детей)
Рейтинг MPAA: R (лицам до 17 лет обязательно присутствие взрослого)
Дата мировой премьеры: 20 ноября 2019
Дата российской премьеры: 9 января 2020, Каро-Премьер
Релиз от: NNMClub
Продолжительность: 02: 10: 55
Качество видео: BDRip 720p (Heisenberg )
Перевод: Дублированный (iTunes), авторский (одноголосый, закадровый)
Субтитры: Русские (forced, full x2), английские (full, SDH)
Видео: AVC/H.264, 1280x536, (2.40: 1), 3612 kbps, 23.976 fps
Аудио 1: AC3, 6 ch, 384 Kbps - Русский (DUB, iTunes)
Аудио 2: AC3, 6 ch, 640 Kbps - Русский (AVO, Ю. Сербин)
Аудио 3: AC3, 6 ch, 640 Kbps - АнглийскийGeneral
Unique ID : 155860743349952117121252252331590228581 (0x7541AFF1663FA07D25E1826057971A65)
Complete name : F: Richard.Jewell.2019.BDRip.720p.NNMClub.mkv
Format : Matroska
Format version : Version 4
File size : 4.83 GiB
Duration : 2 h 10 min
Overall bit rate : 5 279 kb/s
Movie name : Richard Jewell (2019) | NNMClub
Encoded date : UTC 2020-08-29 11: 46: 22
Writing application : mkvmerge v49.0.0 (\'Sick Of Losing Soulmates\') 64-bit
Writing library : libebml v1.4.0 + libmatroska v1.6.1
Cover : Yes
Attachments : Cover.jpg/x264.log
Video
ID : 1
Format : AVC
Format/Info : Advanced Video Codec
Format profile : High@L4.1
Format settings : CABAC/12 Ref Frames
Format settings, CABAC : Yes
Format settings, Reference : 12 frames
Codec ID : V_MPEG4/ISO/AVC
Duration : 2 h 10 min
Bit rate : 3 612 kb/s
Width : 1 280 pixels
Height : 536 pixels
Display aspect ratio : 2.40: 1
Frame rate mode : Constant
Frame rate : 23.976 (24000/1001) FPS
Color space : YUV
Chroma subsampling : 4: 2: 0
Bit depth : 8 bits
Scan type : Progressive
Bits/(Pixel*Frame) : 0.220
Stream size : 3.30 GiB (68%)
Title : Richard Jewell (2019)
Writing library : x264 core 161 r3018 db0d417
Encoding settings : cabac=1/ref=12/deblock=1: -3: -3/analyse=0x3: 0x133/me=esa/subme=11/psy=1/psy_rd=1.00: 0.00/mixed_ref=1/me_range=32/chroma_me=1/trellis=2/8x8dct=1/cqm=0/deadzone=21, 11/fast_pskip=0/chroma_qp_offset=-2/threads=12/lookahead_threads=3/sliced_threads=0/nr=0/decimate=0/interlaced=0/bluray_compat=0/constrained_intra=0/bframes=10/b_pyramid=2/b_adapt=2/b_bias=0/direct=3/weightb=1/open_gop=0/weightp=2/keyint=240/keyint_min=23/scenecut=40/intra_refresh=0/rc_lookahead=60/rc=crf/mbtree=0/crf=16.8/qcomp=0.70/qpmin=0/qpmax=69/qpstep=4/vbv_maxrate=50000/vbv_bufsize=62500/crf_max=0.0/nal_hrd=none/filler=0/ip_ratio=1.20/pb_ratio=1.20/aq=1: 0.70
Language : English
Default : Yes
Forced : No
Color range : Limited
Color primaries : BT.709
Transfer characteristics : BT.709
Matrix coefficients : BT.709
Audio #1
ID : 2
Format : AC-3
Format/Info : Audio Coding 3
Commercial name : Dolby Digital
Codec ID : A_AC3
Duration : 2 h 10 min
Bit rate mode : Constant
Bit rate : 384 kb/s
Channel(s) : 6 channels
Channel layout : L R C LFE Ls Rs
Sampling rate : 48.0 kHz
Frame rate : 31.250 FPS (1536 SPF)
Compression mode : Lossy
Stream size : 360 MiB (7%)
Title : DUB, iTunes
Language : Russian
Service kind : Complete Main
Default : Yes
Forced : No
Audio #2
ID : 3
Format : AC-3
Format/Info : Audio Coding 3
Commercial name : Dolby Digital
Codec ID : A_AC3
Duration : 2 h 10 min
Bit rate mode : Constant
Bit rate : 640 kb/s
Channel(s) : 6 channels
Channel layout : L R C LFE Ls Rs
Sampling rate : 48.0 kHz
Frame rate : 31.250 FPS (1536 SPF)
Compression mode : Lossy
Stream size : 599 MiB (12%)
Title : AVO, Ю. Сербин
Language : Russian
Service kind : Complete Main
Default : No
Forced : No
Audio #3
ID : 4
Format : AC-3
Format/Info : Audio Coding 3
Commercial name : Dolby Digital
Codec ID : A_AC3
Duration : 2 h 10 min
Bit rate mode : Constant
Bit rate : 640 kb/s
Channel(s) : 6 channels
Channel layout : L R C LFE Ls Rs
Sampling rate : 48.0 kHz
Frame rate : 31.250 FPS (1536 SPF)
Compression mode : Lossy
Stream size : 599 MiB (12%)
Title : Original
Language : English
Service kind : Complete Main
Default : No
Forced : No
Text #1
ID : 5
Format : UTF-8
Codec ID : S_TEXT/UTF8
Codec ID/Info : UTF-8 Plain Text
Duration : 2 h 4 min
Bit rate : 4 b/s
Count of elements : 57
Stream size : 4.04 KiB (0%)
Title : Forced
Language : Russian
Default : No
Forced : No
Text #2
ID : 6
Format : UTF-8
Codec ID : S_TEXT/UTF8
Codec ID/Info : UTF-8 Plain Text
Duration : 2 h 10 min
Bit rate : 129 b/s
Count of elements : 2178
Stream size : 124 KiB (0%)
Title : Full, A.Kislinskaya
Language : Russian
Default : No
Forced : No
Text #3
ID : 7
Format : UTF-8
Codec ID : S_TEXT/UTF8
Codec ID/Info : UTF-8 Plain Text
Duration : 2 h 4 min
Bit rate : 109 b/s
Count of elements : 2103
Stream size : 99.9 KiB (0%)
Title : Full, blindAvocado (uncensored)
Language : Russian
Default : No
Forced : No
Text #4
ID : 8
Format : UTF-8
Codec ID : S_TEXT/UTF8
Codec ID/Info : UTF-8 Plain Text
Duration : 2 h 3 min
Bit rate : 80 b/s
Count of elements : 2470
Stream size : 72.6 KiB (0%)
Title : Full
Language : English
Default : No
Forced : No
Text #5
ID : 9
Format : UTF-8
Codec ID : S_TEXT/UTF8
Codec ID/Info : UTF-8 Plain Text
Duration : 2 h 3 min
Bit rate : 84 b/s
Count of elements : 2322
Stream size : 76.7 KiB (0%)
Title : SDH v.1
Language : English
Default : No
Forced : No
Text #6
ID : 10
Format : UTF-8
Codec ID : S_TEXT/UTF8
Codec ID/Info : UTF-8 Plain Text
Duration : 2 h 3 min
Bit rate : 87 b/s
Count of elements : 2665
Stream size : 79.8 KiB (0%)
Title : SDH v.2
Language : English
Default : No
Forced : No
Menu
00: 00: 00.000 : en: Chapter 01
00: 09: 51.633 : en: Chapter 02
00: 20: 03.619 : en: Chapter 03
00: 29: 55.127 : en: Chapter 04
00: 40: 03.192 : en: Chapter 05
00: 48: 21.065 : en: Chapter 06
00: 57: 52.552 : en: Chapter 07
01: 06: 35.575 : en: Chapter 08
01: 14: 34.303 : en: Chapter 09
01: 24: 33.402 : en: Chapter 10
01: 34: 04.097 : en: Chapter 11
01: 44: 01.360 : en: Chapter 12
01: 52: 20.192 : en: Chapter 13
02: 02: 28.550 : en: Chapter 14
02: 04: 53.361 : en: Chapter 15x264 info: profile High, level 4.1, 4: 2: 0, 8-bit
x264 info: frame I: 1332 Avg QP: 15.72 size: 83956
x264 info: frame P: 39955 Avg QP: 17.02 size: 35970
x264 info: frame B: 147066 Avg QP: 18.20 size: 13582
x264 info: consecutive B-frames: 1.6% 2.3% 8.0% 20.2% 18.5% 38.2% 5.5% 2.1% 1.4% 0.9% 1.4%
x264 info: mb I I16..4: 6.3% 75.4% 18.3%
x264 info: mb P I16..4: 0.5% 10.5% 1.3% P16..4: 29.1% 34.2% 15.5% 2.3% 0.2% skip: 6.5%
x264 info: mb B I16..4: 0.0% 1.1% 0.1% B16..8: 33.5% 23.7% 5.4% direct: 5.3% skip: 30.9% L0: 45.5% L1: 41.2% BI: 13.4%
x264 info: 8x8 transform intra: 84.1% inter: 56.2%
x264 info: direct mvs spatial: 99.9% temporal: 0.1%
x264 info: coded y, uvDC, uvAC intra: 92.3% 85.2% 67.4% inter: 28.4% 20.2% 8.7%
x264 info: i16 v, h, dc, p: 22% 16% 6% 57%
x264 info: i8 v, h, dc, ddl, ddr, vr, hd, vl, hu: 13% 8% 7% 9% 13% 14% 12% 13% 12%
x264 info: i4 v, h, dc, ddl, ddr, vr, hd, vl, hu: 15% 9% 5% 8% 15% 14% 12% 11% 10%
x264 info: i8c dc, h, v, p: 42% 22% 20% 16%
x264 info: Weighted P-Frames: Y: 4.5% UV: 2.9%
x264 info: ref P L0: 44.5% 10.1% 17.3% 6.4% 5.8% 3.8% 3.8% 1.9% 2.0% 1.5% 1.6% 1.3% 0.1% 0.0%
x264 info: ref B L0: 68.7% 12.3% 6.4% 3.5% 2.5% 2.1% 1.7% 1.1% 0.9% 0.6% 0.2%
x264 info: ref B L1: 93.8% 6.2%
x264 info: kb/s: 3611.51
Скриншоты для ознакомления


Все одноименные релизы в Клубе Время раздачи: 24/7 до первых 10-и скачавших
 
Уважаемый посетитель, Вы зашли на сайт как незарегистрированный пользователь. Мы рекомендуем Вам зарегистрироваться либо зайти на сайт под своим именем.

Другие новости по теме:

  • Дело Ричарда Джуэлла / Richard Jewell (2019) DVDScr [MVO] [AD]
  • Дело Ричарда Джуэлла / Richard Jewell (2019) DVDScr [Line, AD]
  • Дело Ричарда Джуэлла / Richard Jewell (2019) BDRip [H.264 / 1080p] [PR]
  • Дело Ричарда Джуэлла / Richard Jewell (2019) WEB-DL [H.264 / 720p-LQ]
  • Дело Ричарда Джуэлла / Richard Jewell (2019) WEB-DL [H.264 / 1080p-LQ]
  • Дело Ричарда Джуэлла / Richard Jewell (2019) WEB-DL [H.264 / 1080p-LQ] [DVO]
  • Дело Ричарда Джуэлла / Richard Jewell (2019) BDRip [H.264 / 1080p]
  • Дело Ричарда Джуэлла / Richard Jewell (2019) BDRemux [H.264 / 1080p]


  • Информация
    Посетители, находящиеся в группе Гости, не могут оставлять комментарии в данной новости.
    Главная страница | Регистрация | Добавить новость | Новое на сайте Copyright © 2019. bolt.mmix.club All Rights Reserved