Подписывайся на наш канал в Telegram https://t.me/torrentok и получи доступ к торрентам без ограничений!
. bolt.mmix.club
Авторские права
con...@...Показать
Вход на сайт
Логин:
Пароль:
 
Навигация по сайту
Популярные статьи

Торрент трекер | Скачать торрент | Скачать через Торрент | Скачать торрент бесплатно | Скачать торрент без регистрации Фильмы торрент скачать Солдаты дракона / Dragon Soldiers (2020) BDRip [H.264 / 1080p] [DVO] [PR] торрент скачать бесплатно

Солдаты дракона / Dragon Soldiers (2020) BDRip [H.264 / 1080p] [DVO] [PR] торрент скачать бесплатно

Фильмы торрент скачать
Солдаты дракона / Dragon Soldiers (2020) BDRip [H.264 / 1080p] [DVO] [PR]Производство: США, Splendid Film, Automatic Entertainment
Жанр: Фэнтези, боевик
Режиссер: Хэнк Брэкстэн

Актеры
Antuone Torbert, Рубен Пла, Tarkan Dospil, Хит С. Хейн, Дэн Синклер, Ариэль Брачфелд, Мотаун Морис, Asa Forsyth, Батч МакКейн, Ethan John Ball

Описание

В одном провинциальном городке начали происходить очень неприятные события. Бездомные стали собираться в банду, что угрожало безопасности жителей города. И тогда мэр решил прибегнуть к помощи бывших военных. Он нанимает группу опытных солдат, задачей которых станет избавление от опасности и очистка окрестных лесов и гор от бандитов. Но когда наемники прибыли на место, они узнали шокирующую новость. Оказывается, бездомные не просто собрались в стаю, а поклоняются загадочному существу. И этот монстр уничтожает все на своем пути – он сжигает огромные леса и пожирает людей. Избавиться от него окажется непросто.


Дата мировой премьеры: 11 мая 2020, ...
Продолжительность: 01: 29: 54
Качество видео: BDRip
Перевод: Двуголосый любительский (LakeFilms)
Субтитры: Английские
Видео: AVC/H.264, 1920x1080, ~11.5 Mbps
Аудио 1: AC3, 2 ch, 256 kbps - Русский
Аудио 2: DTS, 6 ch, 1509 kbps - Английский
Общее
Уникальный идентификатор : 176454440419199780176942452129784092518 (0x84BFE39996F7664DADF03F5F40D75766)
Полное имя : D: NNMClubSoldati.Drakona.2020.BDRip.1080p..mkv
Формат : Matroska
Версия формата : Version 4
Размер файла : 8, 31 Гбайт
Продолжительность : 1 ч. 29 м.
Общий поток : 13, 2 Мбит/сек
Название фильма : Soldati.Drakona.2020.BDRip.(1080p).Agentx
Дата кодирования : UTC 2020-08-27 08: 35: 49
Программа кодирования : mkvmerge v8.3.0 (\'Over the Horizon\') 64bit
Библиотека кодирования : libebml v1.3.1 + libmatroska v1.4.2
Видео
Идентификатор : 1
Формат : AVC
Формат/Информация : Advanced Video Codec
Профиль формата : High@L4.1
Настройки формата : CABAC/4 Ref Frames
Параметр CABAC формата : Да
Параметр RefFrames формата : 4 кадра
Идентификатор кодека : V_MPEG4/ISO/AVC
Продолжительность : 1 ч. 29 м.
Битрейт : 11, 5 Мбит/сек
Ширина : 1920 пикселей
Высота : 1080 пикселей
Соотношение сторон : 16: 9
Режим частоты кадров : Постоянный
Частота кадров : 23, 976 (24000/1001) кадра/сек
Цветовое пространство : YUV
Субдискретизация насыщенности : 4: 2: 0
Битовая глубина : 8 бит
Тип развёртки : Прогрессивная
Бит/(Пиксели*Кадры) : 0.231
Размер потока : 7, 20 Гбайт (87%)
Заголовок : Soldati.Drakona.2020.BDRip.(1080p).Agentx
Библиотека кодирования : x264 core 148 r2748 97eaef2
Настройки программы : cabac=1/ref=4/deblock=1: -2: -2/analyse=0x3: 0x113/me=umh/subme=9/psy=1/psy_rd=1.00: 0.15/mixed_ref=1/me_range=16/chroma_me=1/trellis=2/8x8dct=1/cqm=0/deadzone=21, 11/fast_pskip=1/chroma_qp_offset=-3/threads=72/lookahead_threads=3/sliced_threads=0/nr=0/decimate=1/interlaced=0/bluray_compat=0/constrained_intra=0/bframes=3/b_pyramid=2/b_adapt=1/b_bias=0/direct=3/weightb=1/open_gop=0/weightp=2/keyint=250/keyint_min=25/scenecut=40/intra_refresh=0/rc_lookahead=50/rc=2pass/mbtree=1/bitrate=11500/ratetol=1.0/qcomp=0.60/qpmin=0/qpmax=69/qpstep=4/cplxblur=20.0/qblur=0.5/vbv_maxrate=31250/vbv_bufsize=31250/nal_hrd=none/filler=0/ip_ratio=1.40/aq=1: 1.00
Default : Да
Forced : Нет
Аудио #1
Идентификатор : 2
Формат : AC-3
Формат/Информация : Audio Coding 3
Коммерческое название : Dolby Digital
Идентификатор кодека : A_AC3
Продолжительность : 1 ч. 29 м.
Вид битрейта : Постоянный
Битрейт : 256 Кбит/сек
Каналы : 2 канала
ChannelLayout : L R
Частота : 48, 0 КГц
Частота кадров : 31, 250 кадров/сек (1536 SPF)
Битовая глубина : 16 бит
Метод сжатия : С потерями
Размер потока : 165 Мбайт (2%)
Заголовок : Двухголосый (LakeFilms)
Язык : Russian
ServiceKind/String : Complete Main
Default : Да
Forced : Нет
Аудио #2
Идентификатор : 3
Формат : DTS
Формат/Информация : Digital Theater Systems
Идентификатор кодека : A_DTS
Продолжительность : 1 ч. 29 м.
Вид битрейта : Постоянный
Битрейт : 1509 Кбит/сек
Каналы : 6 каналов
ChannelLayout : C L R Ls Rs LFE
Частота : 48, 0 КГц
Частота кадров : 93, 750 кадра/сек (512 SPF)
Битовая глубина : 16 бит
Метод сжатия : С потерями
Размер потока : 970 Мбайт (11%)
Язык : English
Default : Нет
Forced : Нет
Текст
Идентификатор : 4
Формат : UTF-8
Идентификатор кодека : S_TEXT/UTF8
Идентификатор кодека/Информация : UTF-8 Plain Text
Продолжительность : 1 ч. 25 м.
Битрейт : 36 бит/сек
ElementCount : 897
Размер потока : 23, 0 Кбайт (0%)
Язык : English
Default : Нет
Forced : Нет
Меню
00: 00: 00.000 : en: Chapter 01
00: 09: 03.751 : en: Chapter 02
00: 16: 55.014 : en: Chapter 03
00: 24: 05.735 : en: Chapter 04
00: 34: 06.586 : en: Chapter 05
00: 40: 51.449 : en: Chapter 06
00: 47: 35.644 : en: Chapter 07
00: 57: 58.308 : en: Chapter 08
01: 06: 59.974 : en: Chapter 09
01: 14: 31.258 : en: Chapter 10
01: 20: 18.855 : en: Chapter 11
01: 27: 07.847 : en: Chapter 12

Скриншоты для ознакомления



Все одноименные релизы в Клубе
Время раздачи: 24/7 (круглосуточно) (до появления первых 3-5 скачавших)
 
Уважаемый посетитель, Вы зашли на сайт как незарегистрированный пользователь. Мы рекомендуем Вам зарегистрироваться либо зайти на сайт под своим именем.

Другие новости по теме:

  • Солдаты дракона / Dragon Soldiers (2020) WEBRip [H.264 / 1080p-LQ] [DVO, AD]


  • Информация
    Посетители, находящиеся в группе Гости, не могут оставлять комментарии в данной новости.
    Главная страница | Регистрация | Добавить новость | Новое на сайте Copyright © 2019. bolt.mmix.club All Rights Reserved