Подписывайся на наш канал в Telegram https://t.me/torrentok и получи доступ к торрентам без ограничений!
. bolt.mmix.club
Авторские права
con...@...Показать
Вход на сайт
Логин:
Пароль:
 
Навигация по сайту
Популярные статьи

Торрент трекер | Скачать торрент | Скачать через Торрент | Скачать торрент бесплатно | Скачать торрент без регистрации Фильмы торрент скачать Залив тишины / The Bay of Silence (2020) WEB-DL [H.264 / 1080-LQ] торрент скачать бесплатно

Залив тишины / The Bay of Silence (2020) WEB-DL [H.264 / 1080-LQ] торрент скачать бесплатно

Фильмы торрент скачать
Залив тишины / The Bay of Silence (2020) WEB-DL [H.264 / 1080-LQ]Производство: Великобритания, Tbos Film, Imperative Entertainment, Levitate Film
Жанр: Триллер, детектив
Режиссер: Паула ван дер Уст
Продюсер: Ален Де Левита, Кэролайн Гудолл, Чейэнн Кэйн

Актеры
Клас Банг, Ольга Куриленко, Брайан Кокс, Ассаад Буаб, Элис Крайдж, Кэролайн Гудолл, Шалиша Джеймс-Дэвис, Литиана Биутанасева, Лилибет Биутанасева, Дункан Дафф

Описание

Розалинда внезапно исчезает вместе с тремя детьми. Уилл ищет семью по всей Европе и находит своих родных в отдалённой деревне на севере Франции. Облегчение быстро сменяется ужасом из-за таинственной смерти маленького сына.


Возраст: 18+ (зрителям, достигшим 18 лет. запрещено для детей)
Дата мировой премьеры: 25 июля 2020, ...
Дата российской премьеры: 20 августа 2020, Парадиз
Релиз от: seleZen
Продолжительность: 01: 33: 28
Качество видео: WEB-DL
Перевод: Дублированный (iTunes)
Субтитры: Русские (Full), Английские
Видео: AVC/H.264, 1920x1080, 5018 kbps
Аудио 1: AC3, 6 ch, 384 kbps - Русский
Аудио 2: AC3, 6 ch, 384 kbps - Английский
General
Unique ID : 324980934749677454052782298838778624011 (0xF47D0D25DBF5B6C69D978BD806A9B80B)
Complete name : D: Video111The.Bay.of.Silence.2020.WEB-DL.1080p.seleZen.mkv
Format : Matroska
Format version : Version 4
File size : 3.78 GiB
Duration : 1 h 33 min
Overall bit rate : 5 788 kb/s
Movie name : The.Bay.of.Silence.2020 from селезень
Encoded date : UTC 2020-08-29 14: 01: 57
Writing application : mkvmerge v40.0.0 (\'Old Town Road + Pony\') 64-bit
Writing library : libebml v1.3.9 + libmatroska v1.5.2
Video
ID : 1
Format : AVC
Format/Info : Advanced Video Codec
Format profile : High@L4
Format settings : CABAC/2 Ref Frames
Format settings, CABAC : Yes
Format settings, Reference : 2 frames
Codec ID : V_MPEG4/ISO/AVC
Duration : 1 h 33 min
Bit rate : 5 018 kb/s
Width : 1 920 pixels
Height : 1 080 pixels
Display aspect ratio : 16: 9
Frame rate mode : Constant
Frame rate : 23.976 (24000/1001) FPS
Color space : YUV
Chroma subsampling : 4: 2: 0
Bit depth : 8 bits
Scan type : Progressive
Bits/(Pixel*Frame) : 0.101
Stream size : 3.28 GiB (87%)
Writing library : x264 core 155 r2901 7d0ff22
Language : English
Default : Yes
Forced : No
Color range : Limited
Color primaries : BT.709
Transfer characteristics : BT.709
Matrix coefficients : BT.709
Audio #1
ID : 2
Format : AC-3
Format/Info : Audio Coding 3
Commercial name : Dolby Digital
Codec ID : A_AC3
Duration : 1 h 33 min
Bit rate mode : Constant
Bit rate : 384 kb/s
Channel(s) : 6 channels
Channel layout : L R C LFE Ls Rs
Sampling rate : 48.0 kHz
Frame rate : 31.250 FPS (1536 SPF)
Compression mode : Lossy
Stream size : 257 MiB (7%)
Title : iTunes
Language : Russian
Service kind : Complete Main
Default : Yes
Forced : Yes
Audio #2
ID : 3
Format : AC-3
Format/Info : Audio Coding 3
Commercial name : Dolby Digital
Codec ID : A_AC3
Duration : 1 h 33 min
Bit rate mode : Constant
Bit rate : 384 kb/s
Channel(s) : 6 channels
Channel layout : L R C LFE Ls Rs
Sampling rate : 48.0 kHz
Frame rate : 31.250 FPS (1536 SPF)
Compression mode : Lossy
Stream size : 257 MiB (7%)
Title : Original
Language : English
Service kind : Complete Main
Default : No
Forced : No
Text #1
ID : 4
Format : UTF-8
Codec ID : S_TEXT/UTF8
Codec ID/Info : UTF-8 Plain Text
Duration : 1 h 23 min
Bit rate : 66 b/s
Count of elements : 904
Stream size : 40.8 KiB (0%)
Title : Full
Language : Russian
Default : No
Forced : No
Text #2
ID : 5
Format : UTF-8
Codec ID : S_TEXT/UTF8
Codec ID/Info : UTF-8 Plain Text
Duration : 1 h 23 min
Bit rate : 37 b/s
Count of elements : 904
Stream size : 22.8 KiB (0%)
Language : English
Default : No
Forced : No

Скриншоты для ознакомления



Все одноименные релизы в Клубе
Время раздачи: 24/7 (мультитрекер)
 
Уважаемый посетитель, Вы зашли на сайт как незарегистрированный пользователь. Мы рекомендуем Вам зарегистрироваться либо зайти на сайт под своим именем.

Другие новости по теме:

  • Залив тишины / The Bay of Silence (2020) WEB-DL [H.264 / 1080-LQ] [MVO]


  • Информация
    Посетители, находящиеся в группе Гости, не могут оставлять комментарии в данной новости.
    Главная страница | Регистрация | Добавить новость | Новое на сайте Copyright © 2019. bolt.mmix.club All Rights Reserved