Подписывайся на наш канал в Telegram https://t.me/torrentok и получи доступ к торрентам без ограничений!
. bolt.mmix.club
Авторские права
con...@...Показать
Вход на сайт
Логин:
Пароль:
 
Навигация по сайту
Популярные статьи

Торрент трекер | Скачать торрент | Скачать через Торрент | Скачать торрент бесплатно | Скачать торрент без регистрации Фильмы торрент скачать Бог грома / Mortal (2020) BDRip [H.264 / 1080p] торрент скачать бесплатно

Бог грома / Mortal (2020) BDRip [H.264 / 1080p] торрент скачать бесплатно

Фильмы торрент скачать
Бог грома / Mortal (2020) BDRip [H.264 / 1080p]Производство: Норвегия, США, Великобритания/42, Automatik Entertainment, Eldorado Film
Жанр: Фэнтези, боевик, приключения
Режиссер: Андре Овредал
Продюсер: Рори Аиткен, Джон Эйнар Хаген, Брайан Кэвэна-Джонс

Актеры
Нат Вулф, Приянка Бозе, Ибен М. Акерлие, Артур Хакалахти, Оддрун Валестранд, Равдип Сингх Баджва, Аня Нова, Суннива Линд Ховерстад, Пер Фриш, Нико Русаков

Описание

Повелевать стихией, обращать в пепел прикосновением и заставлять всё живое трепетать от страха — удел языческих богов. Но что произойдет, когда планета столкнется с одним из них во плоти? Ведь этот древний Бог всего лишь человек.


Возраст: 16+ (зрителям, достигшим 16 лет)
Дата мировой премьеры: 28 февраля 2020
Цифровой релиз: 2 июня 2020, Вольга
Релиз от: selezen
Продолжительность: 01: 40: 20
Качество видео: BDRip
Перевод: Дублированный (iTunes)
Субтитры: Русские (Full, SDH), Английские
Видео: AVC/H.264, 1920x800, ~8298 Kbps
Аудио 1: AC-3, 6 ch, 384 Kbps - Русский (DUB, iTunes)
Аудио 2: DTS, 6 ch, 1509 Kbps - Норвежский
General
Unique ID : 277822135633194025927353639914776626190 (0xD10298D67F1FC58628EB36204565040E)
Complete name : D: Video111Mortal.2020.BDRip.1080p.seleZen.mkv
Format : Matroska
Format version : Version 4
File size : 7.14 GiB
Duration : 1 h 40 min
Overall bit rate : 10.2 Mb/s
Movie name : Mortal 2020 from селезень
Encoded date : UTC 2020-08-29 16: 18: 05
Writing application : mkvmerge v40.0.0 (\'Old Town Road + Pony\') 64-bit
Writing library : libebml v1.3.9 + libmatroska v1.5.2
Video
ID : 1
Format : AVC
Format/Info : Advanced Video Codec
Format profile : High@L4.1
Format settings : CABAC/5 Ref Frames
Format settings, CABAC : Yes
Format settings, Reference : 5 frames
Codec ID : V_MPEG4/ISO/AVC
Duration : 1 h 40 min
Bit rate : 8 298 kb/s
Width : 1 920 pixels
Height : 800 pixels
Display aspect ratio : 2.40: 1
Frame rate mode : Constant
Frame rate : 25.000 FPS
Color space : YUV
Chroma subsampling : 4: 2: 0
Bit depth : 8 bits
Scan type : Progressive
Bits/(Pixel*Frame) : 0.216
Stream size : 5.81 GiB (81%)
Title : NOGRP
Writing library : x264 core 152 r2851 ba24899
Encoding settings : cabac=1/ref=5/deblock=1: -3: -3/analyse=0x3: 0x113/me=umh/subme=10/psy=1/psy_rd=1.00: 0.00/mixed_ref=1/me_range=24/chroma_me=1/trellis=2/8x8dct=1/cqm=0/deadzone=21, 11/fast_pskip=1/chroma_qp_offset=-2/threads=25/lookahead_threads=4/sliced_threads=0/nr=0/decimate=1/interlaced=0/bluray_compat=0/constrained_intra=0/bframes=8/b_pyramid=2/b_adapt=2/b_bias=0/direct=3/weightb=1/open_gop=0/weightp=2/keyint=240/keyint_min=24/scenecut=40/intra_refresh=0/rc_lookahead=60/rc=2pass/mbtree=1/bitrate=8298/ratetol=1.0/qcomp=0.60/qpmin=0/qpmax=69/qpstep=4/cplxblur=20.0/qblur=0.5/vbv_maxrate=62500/vbv_bufsize=78125/nal_hrd=none/filler=0/ip_ratio=1.40/aq=1: 1.00
Language : Norwegian
Default : Yes
Forced : No
Audio #1
ID : 2
Format : AC-3
Format/Info : Audio Coding 3
Commercial name : Dolby Digital
Codec ID : A_AC3
Duration : 1 h 40 min
Bit rate mode : Constant
Bit rate : 384 kb/s
Channel(s) : 6 channels
Channel layout : L R C LFE Ls Rs
Sampling rate : 48.0 kHz
Frame rate : 31.250 FPS (1536 SPF)
Compression mode : Lossy
Stream size : 276 MiB (4%)
Title : iTunes
Language : Russian
Service kind : Complete Main
Default : Yes
Forced : Yes
Audio #2
ID : 3
Format : DTS
Format/Info : Digital Theater Systems
Codec ID : A_DTS
Duration : 1 h 40 min
Bit rate mode : Constant
Bit rate : 1 509 kb/s
Channel(s) : 6 channels
Channel layout : C L R Ls Rs LFE
Sampling rate : 48.0 kHz
Frame rate : 93.750 FPS (512 SPF)
Bit depth : 24 bits
Compression mode : Lossy
Stream size : 1.06 GiB (15%)
Title : Original
Language : Norwegian
Default : No
Forced : No
Text #1
ID : 4
Format : UTF-8
Codec ID : S_TEXT/UTF8
Codec ID/Info : UTF-8 Plain Text
Duration : 1 h 32 min
Bit rate : 50 b/s
Count of elements : 540
Stream size : 34.1 KiB (0%)
Title : Full
Language : Russian
Default : No
Forced : No
Text #2
ID : 5
Format : UTF-8
Codec ID : S_TEXT/UTF8
Codec ID/Info : UTF-8 Plain Text
Duration : 1 h 33 min
Bit rate : 61 b/s
Count of elements : 735
Stream size : 41.8 KiB (0%)
Title : SDH
Language : Russian
Default : No
Forced : No
Text #3
ID : 6
Format : UTF-8
Codec ID : S_TEXT/UTF8
Codec ID/Info : UTF-8 Plain Text
Duration : 1 h 25 min
Bit rate : 30 b/s
Count of elements : 528
Stream size : 18.8 KiB (0%)
Language : English
Default : No
Forced : No
Menu
00: 00: 00.000 : en: 00: 00: 00.000
00: 11: 06.360 : en: 00: 11: 06.360
00: 27: 39.200 : en: 00: 27: 39.200
00: 41: 14.200 : en: 00: 41: 14.200
00: 49: 10.280 : en: 00: 49: 10.280
01: 06: 59.440 : en: 01: 06: 59.440
01: 16: 53.200 : en: 01: 16: 53.200
01: 33: 44.320 : en: 01: 33: 44.320

Скриншоты для ознакомления



Все одноименные релизы в Клубе
Время раздачи: 24/7 (мультитрекер)
 
Уважаемый посетитель, Вы зашли на сайт как незарегистрированный пользователь. Мы рекомендуем Вам зарегистрироваться либо зайти на сайт под своим именем.

Другие новости по теме:

  • Бог грома / Mortal (2020) WEB-DLRip [MVO] [AD]
  • Бог грома / Mortal (2020) WEB-DLRip [H.264 / 1080p-LQ] [MVO] [AD]
  • Бог грома / Mortal (2020) WEB-DL [H.264 / 1080p-LQ]
  • Бог грома / Mortal (2020) WEB-DLRip
  • Бог грома / Mortal (2020) WEB-DL [1080p] ATV3
  • Бог грома / Mortal (2020) WEB-DL [H.264 / 1080p-LQ]
  • Бог грома / Mortal (2020) WEB-DL [H.264 / 720p-LQ]
  • Бог грома / Mortal (2020) BDRip [H.264 / 720p]


  • Информация
    Посетители, находящиеся в группе Гости, не могут оставлять комментарии в данной новости.
    Главная страница | Регистрация | Добавить новость | Новое на сайте Copyright © 2019. bolt.mmix.club All Rights Reserved