Подписывайся на наш канал в Telegram https://t.me/torrentok и получи доступ к торрентам без ограничений!
. bolt.mmix.club
Авторские права
con...@...Показать
Вход на сайт
Логин:
Пароль:
 
Навигация по сайту
Популярные статьи

Торрент трекер | Скачать торрент | Скачать через Торрент | Скачать торрент бесплатно | Скачать торрент без регистрации Фильмы торрент скачать Свои (2020) WEB-DL [H.264 / 1080p-LQ] (сезон 3, серии 1-4 из ) (обновляемая) торрент скачать бесплатно

Свои (2020) WEB-DL [H.264 / 1080p-LQ] (сезон 3, серии 1-4 из ) (обновляемая) торрент скачать бесплатно

Фильмы торрент скачать
Свои (2020) WEB-DL [H.264 / 1080p-LQ] (сезон 3, серии 1-4 из ) (обновляемая)Производство: Россия/ООО Доля по заказу Пятого канала
Жанр: детектив
Режиссер: Сергей Малюгов

Актеры
Вера Плешанова, Ирина Горячева, Олег Жилин, Елена Дорофеева, Юрий Уткин, Оксана Карпенко, Ксения Кандаурова, Василий Рукша, Александр Прокопьев, Валерия Мичкова, Андрей Арсеньев и др.

Описание

Дмитрий Родимин продолжает вместе со своей сплоченной командой гениальных специалистов проливать свет на запутанные и порой даже безнадежные преступления, раскрыть которые не удается даже самым матерым следователям. Вместе СВОИ (как они сами называют свою команду) представляют собой неимоверно огромную силу, призванную сделать все возможное и необходимое, чтобы любой виновный в совершении того или иного преступления рано или поздно оказался за решеткой. Ведь никто не должен оставаться безнаказанным, будучи являясь причастным к совершению ужасного преступления.

Возраст: 16+ (зрителям, достигшим 16 лет)
Релиз от: Аlехаndr
Продолжительность: ~00: 40: 00 серия
Качество видео: WEB-DL
Видео: AVC/H.264, 1920x1080 (16: 9), ~3165 Kbps
Аудио: AC3, 2 ch, 192 Kbps
Общее
Уникальный идентификатор : 230581823131819262561783133655701434863 (0xAD78719B928C24CFA5AF15A754A0B1EF)
Полное имя : G: Свои (2020).Сезон 3.by.АlехаndrСвои.3 сезон любимого сериала.01 серия.Подозревается труп.by.Аlехаndr.mkv
Формат : Matroska
Версия формата : Version 4
Размер файла : 977 Мбайт
Продолжительность : 39 м. 54 с.
Общий поток : 3 424 Кбит/сек
Программа кодирования : Lavf58.29.100
Библиотека кодирования : Lavf58.29.100
ErrorDetectionType : Per level 1
Видео
Идентификатор : 1
Формат : AVC
Формат/Информация : Advanced Video Codec
Профиль формата : High@L4
Настройки формата : CABAC/3 Ref Frames
Параметр CABAC формата : Да
Параметр RefFrames формата : 3 кадра
Идентификатор кодека : V_MPEG4/ISO/AVC
Продолжительность : 39 м. 54 с.
Битрейт : 3 164 Кбит/сек
Ширина : 1 920 пикселей
Высота : 1 080 пикселей
Соотношение сторон : 16: 9
Режим частоты кадров : Постоянный
Частота кадров : 25, 000 кадров/сек
Цветовое пространство : YUV
Субдискретизация насыщенности : 4: 2: 0
Битовая глубина : 8 бит
Тип развёртки : Прогрессивная
Бит/(Пиксели*Кадры) : 0.061
Размер потока : 903 Мбайт (92%)
Default : Да
Forced : Нет
Цветовой диапазон : Limited
Основные цвета : BT.709
Характеристики трансфера : BT.709
Коэффициенты матрицы : BT.709
Аудио
Идентификатор : 2
Формат : AC-3
Формат/Информация : Audio Coding 3
Коммерческое название : Dolby Digital
Идентификатор кодека : A_AC3
Продолжительность : 39 м. 54 с.
Вид битрейта : Постоянный
Битрейт : 192 Кбит/сек
Каналы : 2 канала
Channel layout : L R
Частота : 48, 0 КГц
Частота кадров : 31, 250 кадров/сек (1536 SPF)
Метод сжатия : С потерями
Задержка видео : -40 мс.
Размер потока : 54, 8 Мбайт (6%)
Service kind : Complete Main
Default : Да
Forced : Нет

Скриншоты для ознакомления



Все одноименные релизы в Клубе
Время раздачи: 24/7 (круглосуточно) (до появления первых 3-5 скачавших)
 
Уважаемый посетитель, Вы зашли на сайт как незарегистрированный пользователь. Мы рекомендуем Вам зарегистрироваться либо зайти на сайт под своим именем.

Другие новости по теме:

  • Свои (2017) WEB-DL [H.264 / 1080p-LQ] (серии 1 из ) (обновляемая)
  • Декабрь - Мы не оставим города свои (22 Music Videos) (2017) WEB-DL [Н.264 / 360p / 480p / 720p / 1080p-LQ]
  • Мы не оставим города свои! Песни донбасской войны - Video Release (42 Music Videos) (2017) WEB-DL [H.264 / 480p / 720p / 1080p]-LQ
  • Свои (2019) WEB-DL [H.264 / 1080p-LQ] (сезон 2, серии 1-2 из ) (обновляемая)


  • Информация
    Посетители, находящиеся в группе Гости, не могут оставлять комментарии в данной новости.
    Главная страница | Регистрация | Добавить новость | Новое на сайте Copyright © 2019. bolt.mmix.club All Rights Reserved