Подписывайся на наш канал в Telegram https://t.me/torrentok и получи доступ к торрентам без ограничений!
. bolt.mmix.club
Авторские права
con...@...Показать
Вход на сайт
Логин:
Пароль:
 
Навигация по сайту
Популярные статьи

Торрент трекер | Скачать торрент | Скачать через Торрент | Скачать торрент бесплатно | Скачать торрент без регистрации Фильмы торрент скачать Осенняя сказка / Lan se sheng si lian / Autumn Fairy Tale (2019) WEB-DLRip [VO] торрент скачать бесплатно

Осенняя сказка / Lan se sheng si lian / Autumn Fairy Tale (2019) WEB-DLRip [VO] торрент скачать бесплатно

Фильмы торрент скачать
Осенняя сказка / Lan se sheng si lian / Autumn Fairy Tale (2019) WEB-DLRip [VO]Производство: Китай, Yue Hua Pictures, Desen International Media
Жанр: Драма, мелодрама
Режиссер: Ван Цайтао
Продюсер: Jianxiong Tang, David Roberts, Ann An

Актеры
Кевин Сюй, Цзяо Жуй, Вики Лян, Мэн Мэйци, Чжан Мэн, Чжао Лусы, Кини Ли, Бин Рэн, Цай Ган, Линг Лу

Описание

Когда Цзюнь Си было три года, родилась его младшая сестра. Из-за его непослушания в больнице произошла подмена двух новорождённых девочек. Через восемнадцать лет после автомобильной аварии всплывает правда. Эн Си, которая стала его сестрой, уходит в свою семью, в то время как его настоящая сестра Синь Ай возвращается.


Релиз от: Rip by vitolinform
Продолжительность: 01: 45: 39
Качество видео: WEB-DLRip
Перевод: Одноголосый любительский (HelloMickey)
Субтитры: Китайские - hardsub (неотключаемые)
Видео: Xvid, 720x304, ~1332 kbps
Аудио 1: AC3, 2 ch, 192 Кbps | Русский (VO, HelloMickey)
Аудио 2: AC3, 6 ch, 448 Кbps | Китайский
Общее
Полное имя : C: Osennyaya.skazka.2019.WEB-DLRip.avi
Формат : AVI
Формат/Информация : Audio Video Interleave
Размер файла : 1, 47 Гбайт
Продолжительность : 1 ч. 45 м.
Общий поток : 1 986 Кбит/сек
Название фильма : Осенняя сказка/Lan se sheng si lian/Autumn Fairy Tale (2019) WEB-DLRip
Режиссёр : Ван Цайтао/Caitao Wang
Жанр : Драма, мелодрама
Программа кодирования : VirtualDubMod 1.5.10.2 (build 2542/release)
Формат оригинала/Имя : Художественный фильм
Авторское право : Китай, Yue Hua Pictures, Desen International Media
Примечание : Rip by vitolinform
Видео
Идентификатор : 0
Формат : MPEG-4 Visual
Профиль формата : Advanced Simple@L5
Настройки формата : BVOP1
Параметр BVOP формата : 1
Параметр QPel формата : Нет
Параметр GMC формата : Без точки перехода
Параметр матрицы формата : Default (MPEG)
Идентификатор кодека : XVID
Идентификатор кодека/Подсказка : XviD
Продолжительность : 1 ч. 45 м.
Битрейт : 1 332 Кбит/сек
Ширина : 720 пикселей
Высота : 304 пикселя
Соотношение сторон : 2, 35: 1
Частота кадров : 23, 976 (24000/1001) кадра/сек
Частота кадров в оригинале : 23, 976 (23976/1000) кадра/сек
Цветовое пространство : YUV
Субдискретизация насыщенности : 4: 2: 0
Битовая глубина : 8 бит
Тип развёртки : Прогрессивная
Метод сжатия : С потерями
Бит/(Пиксели*Кадры) : 0.254
Размер потока : 1 006 Мбайт (67%)
Библиотека кодирования : XviD 69
Аудио #1
Идентификатор : 1
Формат : AC-3
Формат/Информация : Audio Coding 3
Коммерческое название : Dolby Digital
Идентификатор кодека : 2000
Продолжительность : 1 ч. 45 м.
Вид битрейта : Постоянный
Битрейт : 192 Кбит/сек
Каналы : 2 канала
Channel layout : L R
Частота : 48, 0 КГц
Частота кадров : 31, 250 кадров/сек (1536 SPF)
Метод сжатия : С потерями
Размер потока : 145 Мбайт (10%)
Выравнивание : Разделение по промежуткам
Продолжительность промежутка : 42 мс. (1, 00 видеокадр)
Время предзагрузки промежутка : 500 мс.
Заголовок : Russian (DVO, HelloMickey)
Service kind : Complete Main
Аудио #2
Идентификатор : 2
Формат : AC-3
Формат/Информация : Audio Coding 3
Коммерческое название : Dolby Digital
Идентификатор кодека : 2000
Продолжительность : 1 ч. 45 м.
Вид битрейта : Постоянный
Битрейт : 448 Кбит/сек
Каналы : 6 каналов
Channel layout : L R C LFE Ls Rs
Частота : 48, 0 КГц
Частота кадров : 31, 250 кадров/сек (1536 SPF)
Метод сжатия : С потерями
Размер потока : 339 Мбайт (23%)
Выравнивание : Разделение по промежуткам
Продолжительность промежутка : 42 мс. (1, 00 видеокадр)
Время предзагрузки промежутка : 500 мс.
Заголовок : Chinese (Mandarin)
Service kind : Complete Main

Скриншоты для ознакомления



Все одноименные релизы в Клубе
Время раздачи: 24/7 (мультитрекерная раздача) (до появления первых 3-5 скачавших)
 
Уважаемый посетитель, Вы зашли на сайт как незарегистрированный пользователь. Мы рекомендуем Вам зарегистрироваться либо зайти на сайт под своим именем.

Другие новости по теме:

  • Что Где Когда Осенняя серия игр. Игра 4 (2014.09.27) SATRip
  • VA - Осенняя поп 100-ка. Звезды зажигают (2014) [MP3|256 кб / с]<Pop, Dance> скачать через торрент бесплатно
  • VA - Осенняя турбо дискотека (2014) [MP3|320 кб / с]<Pop, Dance>
  • Осенняя дорога к маме (1981) SATRip скачать через торрент бесплатно
  • VA - Осенняя 100-ка блатных песен (2015) [MP3|256 кб / с]<Шансон> скачать через торрент бесплатно
  • Что Где Когда Осенняя серия игр. Игра 1 (2015.09.26) WEB-DL [H.264 / 1080p-LQ] скачать через торрент бесплатно
  • Что Где Когда Осенняя серия игр. Игра 1 (2015.09.26) SATRip скачать через торрент бесплатно
  • Что Где Когда Осенняя серия игр. Игра 2 (2015.10.03) WEB-DL [H.264 / 1080p-LQ] скачать через торрент бесплатно


  • Информация
    Посетители, находящиеся в группе Гости, не могут оставлять комментарии в данной новости.
    Главная страница | Регистрация | Добавить новость | Новое на сайте Copyright © 2019. bolt.mmix.club All Rights Reserved