Подписывайся на наш канал в Telegram https://t.me/torrentok и получи доступ к торрентам без ограничений!
. bolt.mmix.club
Авторские права
con...@...Показать
Вход на сайт
Логин:
Пароль:
 
Навигация по сайту
Популярные статьи

Торрент трекер | Скачать торрент | Скачать через Торрент | Скачать торрент бесплатно | Скачать торрент без регистрации Фильмы торрент скачать Манхэттен / Manhattan (1979) BDRip [H.265 / 1080p] [10-bit] торрент скачать бесплатно

Манхэттен / Manhattan (1979) BDRip [H.265 / 1080p] [10-bit] торрент скачать бесплатно

Фильмы торрент скачать
Манхэттен / Manhattan (1979) BDRip [H.265 / 1080p] [10-bit]Производство: США/Jack Rollins Charles H. Joffe Productions
Жанр: драма, мелодрама, комедия
Режиссер: Вуди Аллен

Актеры
Вуди Аллен, Дайан Китон, Майкл Мерфи, Мэриэл Хемингуэй, Мэрил Стрип, Энн Бирн Хоффман, Карен Людвиг, Майкл О’Донохью, Виктор Труро, Тиса Фэрроу

Описание
Желая бросить опостылевшую работу и привычный круг знакомств, телевизионный сценарист заводит роман с любовницей своего друга. И вновь оказывается в замкнутом круге лжи, лицемерия, пустословия. Неожиданно для себя он делает открытие, что надо больше доверять людям...


Возраст: 18+ (зрителям, достигшим 18 лет. запрещено для детей)
Рейтинг MPAA: R (лицам до 17 лет обязательно присутствие взрослого)
Релиз от: -Star-Lord- (HEVC-CLUB)
Продолжительность: 01: 36: 20
Качество видео: BDRip
Перевод: Многоголосый профессиональный, двухголосый (UKR), авторский
Язык озвучки: Русский, украинский, английский
Субтитры: Украинские (SDH), английские (SDH)
Видео: HEVC/H.265, 1916x820, ~15, 9 Мbps
Аудио 1: AC3, 2 ch, 192 Kbps - Русский, MVO
Аудио 2: AC3, 2 ch, 192 Kbps - Русский, AVO (А.Михалев)
Аудио 3: AC3, 2 ch, 192 Kbps - Украинский, DVO (Enter-flim)
Аудио 4: AC3, 2 ch, 192 Kbps - Английский
Общее
Уникальный идентификатор : 129422570698750752823509866044996665375 (0x615DE164706C2DBFA37834A1458B401F)
Полное имя : R: Manhattan (1979) BDRip 1080p H.265 2xRUS_UKR_ENG HEVC-CLUB.mkv
Формат : Matroska
Версия формата : Version 4/Version 2
Размер файла : 11, 2 Гбайт
Продолжительность : 1 ч. 36 м.
Общий поток : 16, 7 Мбит/сек
Название фильма : Манхэттен/Мангеттен/Manhattan (1979)
Дата кодирования : UTC 2020-08-28 05: 08: 07
Программа кодирования : mkvmerge v28.2.0 (\'The Awakening\') 64-bit
Библиотека кодирования : libebml v1.3.6 + libmatroska v1.4.9
Обложка : Yes
Attachments : cover
Видео
Идентификатор : 1
Формат : HEVC
Формат/Информация : High Efficiency Video Coding
Профиль формата : Main10@L5.1@High
Идентификатор кодека : V_MPEGH/ISO/HEVC
Продолжительность : 1 ч. 36 м.
Битрейт : 15, 9 Мбит/сек
Ширина : 1916 пикселей
Высота : 820 пикселей
Соотношение сторон : 2, 35: 1
Режим частоты кадров : Постоянный
Частота кадров : 23, 976 (24000/1001) кадра/сек
Цветовое пространство : YUV
Субдискретизация насыщенности : 4: 2: 0
Битовая глубина : 10 бит
Бит/(Пиксели*Кадры) : 0.423
Размер потока : 10, 7 Гбайт (95%)
Заголовок : Манхэттен/Мангеттен/Manhattan (1979)
Библиотека кодирования : x265 3.2+5-354901970679: Windowsclang 8.0.164 bit 10bit
Настройки программы : cpuid=1111039/frame-threads=13/numa-pools=12/wpp/no-pmode/no-pme/no-psnr/no-ssim/log-level=3/input-csp=1/input-res=1916x820/interlace=0/total-frames=0/level-idc=51/high-tier=1/uhd-bd=0/ref=5/allow-non-conformance/no-repeat-t_heads/annexb/no-aud/no-hrd/info/hash=0/no-temporal-layers/open-gop/min-keyint=24/keyint=240/gop-lookahead=0/bframes=12/b-adapt=2/b-pyramid/bframe-bias=0/rc-lookahead=60/lookahead-slices=5/scenecut=40/radl=0/no-splice/no-intra-refresh/ctu=64/min-cu-size=8/rect/amp/max-tu-size=32/tu-inter-depth=4/tu-intra-depth=4/limit-tu=0/rdoq-level=2/dynamic-rd=0.00/no-ssim-rd/signhide/no-tskip/nr-intra=0/nr-inter=0/no-constrained-intra/no-strong-intra-smoothing/max-merge=3/limit-refs=1/no-limit-modes/me=3/subme=7/merange=57/temporal-mvp/no-frame-dup/no-hme/weightp/weightb/no-analyze-src-pics/deblock=-3: -3/no-sao/no-sao-non-deblock/rd=6/selective-sao=0/early-skip/rskip/no-fast-intra/no-tskip-fast/no-cu-lossless/b-intra/no-splitrd-skip/rdpenalty=0/psy-rd=2.00/psy-rdoq=1.00/no-rd-refine/no-lossless/cbqpoffs=0/crqpoffs=0/rc=crf/crf=20.5/qcomp=0.60/qpstep=4/stats-write=0/stats-read=0/vbv-maxrate=50000/vbv-bufsize=50000/vbv-init=0.9/crf-max=30.0/crf-min=0.0/ipratio=1.40/pbratio=1.30/aq-mode=1/aq-strength=1.00/no-cutree/zone-count=0/no-strict-cbr/qg-size=32/no-rc-grain/qpmax=69/qpmin=0/no-const-vbv/sar=1/overscan=0/videoformat=5/range=0/colorprim=2/transfer=2/colormatrix=2/chromaloc=0/display-window=0/cll=0, 0/min-luma=0/max-luma=1023/log2-max-poc-lsb=8/vui-timing-info/vui-hrd-info/slices=1/no-opt-qp-pps/no-opt-ref-list-length-pps/no-multi-pass-opt-rps/scenecut-bias=0.05/no-opt-cu-delta-qp/no-aq-motion/no-hdr/no-hdr-opt/no-dhdr10-opt/no-idr-recovery-sei/analysis-reuse-level=5/scale-factor=0/refine-intra=0/refine-inter=0/refine-mv=1/refine-ctu-distortion=0/no-limit-sao/ctu-info=0/no-lowpass-dct/refine-analysis-type=0/copy-pic=1/max-ausize-factor=1.0/no-dynamic-refine/no-single-sei/no-hevc-aq/no-svt/no-field/qp-adaptation-range=1.00
Default : Да
Forced : Нет
Цветовой диапазон : Limited
Аудио #1
Идентификатор : 2
Формат : AC-3
Формат/Информация : Audio Coding 3
Идентификатор кодека : A_AC3
Продолжительность : 1 ч. 36 м.
Вид битрейта : Постоянный
Битрейт : 192 Кбит/сек
Каналы : 2 канала
Расположение каналов : Front: L R
Частота : 48, 0 КГц
Частота кадров : 31, 250 кадров/сек (1536 SPF)
Битовая глубина : 16 бит
Метод сжатия : С потерями
Размер потока : 132 Мбайт (1%)
Заголовок : AC3/2.0 Ch/192 kbps/MVO
Язык : Russian
ServiceKind/String : Complete Main
Default : Да
Forced : Да
Аудио #2
Идентификатор : 3
Формат : AC-3
Формат/Информация : Audio Coding 3
Идентификатор кодека : A_AC3
Продолжительность : 1 ч. 36 м.
Вид битрейта : Постоянный
Битрейт : 192 Кбит/сек
Каналы : 2 канала
Расположение каналов : Front: L R
Частота : 48, 0 КГц
Частота кадров : 31, 250 кадров/сек (1536 SPF)
Битовая глубина : 16 бит
Метод сжатия : С потерями
Размер потока : 132 Мбайт (1%)
Заголовок : AC3/2.0 Ch/192 kbps/AVO/Алексей Михалев
Язык : Russian
ServiceKind/String : Complete Main
Default : Нет
Forced : Нет
Аудио #3
Идентификатор : 4
Формат : AC-3
Формат/Информация : Audio Coding 3
Идентификатор кодека : A_AC3
Продолжительность : 1 ч. 36 м.
Вид битрейта : Постоянный
Битрейт : 192 Кбит/сек
Каналы : 2 канала
Расположение каналов : Front: L R
Частота : 48, 0 КГц
Частота кадров : 31, 250 кадров/сек (1536 SPF)
Битовая глубина : 16 бит
Метод сжатия : С потерями
Размер потока : 132 Мбайт (1%)
Заголовок : AC3/2.0 Ch/192 kbps/DVO/Enter-flim
Язык : Ukrainian
ServiceKind/String : Complete Main
Default : Нет
Forced : Нет
Аудио #4
Идентификатор : 5
Формат : AC-3
Формат/Информация : Audio Coding 3
Идентификатор кодека : A_AC3
Продолжительность : 1 ч. 36 м.
Вид битрейта : Постоянный
Битрейт : 192 Кбит/сек
Каналы : 2 канала
Расположение каналов : Front: L R
Частота : 48, 0 КГц
Частота кадров : 31, 250 кадров/сек (1536 SPF)
Битовая глубина : 16 бит
Метод сжатия : С потерями
Размер потока : 132 Мбайт (1%)
Заголовок : AC3/2.0 Ch/192 kbps/Original
Язык : English
ServiceKind/String : Complete Main
Default : Нет
Forced : Нет
Текст #1
Идентификатор : 6
Формат : UTF-8
Идентификатор кодека : S_TEXT/UTF8
Идентификатор кодека/Информация : UTF-8 Plain Text
Продолжительность : 1 ч. 35 м.
Битрейт : 144 бит/сек
ElementCount : 1452
Размер потока : 101 Кбайт (0%)
Заголовок : SDH by antusyrzhuk
Язык : Ukrainian
Default : Нет
Forced : Нет
Текст #2
Идентификатор : 7
Формат : UTF-8
Идентификатор кодека : S_TEXT/UTF8
Идентификатор кодека/Информация : UTF-8 Plain Text
Продолжительность : 1 ч. 34 м.
Битрейт : 94 бит/сек
ElementCount : 1451
Размер потока : 64, 9 Кбайт (0%)
Заголовок : SDH
Язык : English
Default : Нет
Forced : Нет
Меню
00: 00: 00.000 : : New York!
00: 04: 08.873 : : Smoking at Elaine\'s
00: 06: 47.532 : : Serious Talks
00: 11: 02.536 : : Overrated Intellectuals
00: 18: 40.828 : : I Quit!
00: 21: 38.046 : : Black-Tie Event
00: 24: 04.317 : : Getting Acquainted
00: 28: 33.086 : : The Morning After
00: 32: 12.639 : : Picking Up Willy
00: 35: 10.775 : : Enlightening Date
00: 41: 14.513 : : It\'s Your Night!
00: 44: 34.630 : : I Can\'t Do This!
00: 50: 40.579 : : He Led Me On!
00: 53: 53.980 : : First Kiss
00: 59: 13.132 : : So Long Over Sodas
01: 03: 16.918 : : Falling in Love
01: 05: 58.996 : : Confronting the Exes
01: 11: 55.769 : : Revealing Literature
01: 14: 49.735 : : Stunned Confused
01: 18: 24.491 : : We\'re Just People!
01: 21: 26.339 : : Broken Hearts
01: 24: 08.376 : : Dictating Life
01: 27: 09.474 : : I Made a Mistake!
01: 33: 56.130 : : End Credits
 
Уважаемый посетитель, Вы зашли на сайт как незарегистрированный пользователь. Мы рекомендуем Вам зарегистрироваться либо зайти на сайт под своим именем.

Другие новости по теме:

  • Манхэттен / Manhattan (2014) WEB-DLRip (Сезон 1, серия 01-07 из 13) (BaibaKo) (обновляемая)
  • Манхэттен / Manhattan (2014) WEB-DL [H.264 / 720p-LQ] (Сезон 1, Серии 1-7 из 13) BaibaKo (обновляемая)
  • Манхэттен / Manhattan (2014) WEB-DL [H.264 / 720p-LQ] (сезон 1, серии 1-13 из 13) (BaibaKo)
  • Манхэттен / Manhattan (2015) WEB-DLRip (сезон 2, серии 1 из 10) BaibaKo (обновляемая) скачать через торрент бесплатно
  • Манхэттен / Manhattan (2015) WEB-DL [H.264 / 720p-LQ] (сезон 2, серии 1-3 из 10) BaibaKo (обновляемая) скачать через торрент бесплатно
  • Пятница 13 – Часть 8: Джейсон штурмует Манхэттен / Friday the 13th Part VIII: Jason Takes Manhattan (1989) BDRemux [1080p]


  • Информация
    Посетители, находящиеся в группе Гости, не могут оставлять комментарии в данной новости.
    Главная страница | Регистрация | Добавить новость | Новое на сайте Copyright © 2019. bolt.mmix.club All Rights Reserved