Подписывайся на наш канал в Telegram https://t.me/torrentok и получи доступ к торрентам без ограничений!
. bolt.mmix.club
Авторские права
con...@...Показать
Вход на сайт
Логин:
Пароль:
 
Навигация по сайту
Популярные статьи

Торрент трекер | Скачать торрент | Скачать через Торрент | Скачать торрент бесплатно | Скачать торрент без регистрации Фильмы торрент скачать Пророк / Next (2007) BDRip [H.265 / 1080p] [10-bit] торрент скачать бесплатно

Пророк / Next (2007) BDRip [H.265 / 1080p] [10-bit] торрент скачать бесплатно

Фильмы торрент скачать
Пророк / Next (2007) BDRip [H.265 / 1080p] [10-bit]Производство: США/Revolution Studios, Initial Entertainment Group, Virtual Studios, Saturn Films
Жанр: фантастика, боевик, триллер
Режиссер: Ли Тамахори
Продюсер: Николас Кейдж, Тодд Гарнер, Грэм Кинг

Актеры
Николас Кейдж, Джулианна Мур, Джессика Бил, Томас Кречман, Тори Киттлз, Хосе Суньига, Джим Бивер, Джейсон Батлер Харнер, Майкл Трукко, Энцо Чиленти

Описание

У Криса Джонсона есть секрет, отравляющий его жизнь: он может предсказывать ближайшее будущее. Устав от бесконечного внимания правительства и медицинских центров, пытающихся разгадать природу его удивительных способностей, Крис ложится на дно. Под вымышленным именем он работает в Лас-Вегасе, где развлекает публику дешевыми фокусами. Но когда группа террористов угрожает Лос-Анджелесу, специальному агенту Калли Феррис придется собрать все силы, чтобы разыскать Криса и убедить его помочь предотвратить катастрофу.


Возраст: 12+ (зрителям, достигшим 12 лет)
Рейтинг MPAA: PG-13 (детям до 13 лет просмотр нежелателен)
Релиз от: OldGamer
Продолжительность: 01: 36: 10
Качество видео: BDRip
Перевод: Дублированный
Субтитры: Русские полные (SRT), English full (SRT)
Видео: HEVC/H.265, 1920x796, ~8441 Kbps
Аудио1: AC3, 6 ch, 448 Kbps - русскийДублированный
Аудио2: AC3, 6 ch, 640 Kbps - englishOriginal
x265 info: frame I: 583, Avg QP: 17.39 kb/s: 22490.19
x265 info: frame P: 28156, Avg QP: 18.82 kb/s: 17057.78
x265 info: frame B: 109620, Avg QP: 20.94 kb/s: 6152.02
x265 info: Weighted P-Frames: Y: 4.6% UV: 3.7%
x265 info: Weighted B-Frames: Y: 4.0% UV: 3.2%
x265 info: consecutive B-frames: 4.3% 4.4% 6.4% 40.2% 9.6% 19.6% 3.7% 11.0% 0.4% 0.2% 0.1% 0.1% 0.0% 0.1% 0.0%
x265 info: encoded 138359 frames in 145708.02s (0.95 fps), 8440.18 kb/s, Avg QP: 20.50
Формат : Matroska
Версия формата : Version 4
Размер файла : 6, 40 Гбайт
Продолжительность : 1 ч. 36 м.
Общий поток : 9 529 Кбит/сек
Название фильма : Пророк.Next.2007.BDRip-HEVC.1080p
Дата кодирования : UTC 2020-08-26 12: 22: 56
Программа кодирования : mkvmerge v49.0.0 (\'Sick Of Losing Soulmates\') 64-bit
Библиотека кодирования : libebml v1.4.0 + libmatroska v1.6.1
Видео
Идентификатор : 1
Формат : HEVC
Формат/Информация : High Efficiency Video Coding
Профиль формата : Main10@L4.1@High
Идентификатор кодека : V_MPEGH/ISO/HEVC
Продолжительность : 1 ч. 36 м.
Битрейт : 8 441 Кбит/сек
Ширина : 1 920 пикселей
Высота : 796 пикселей
Соотношение сторон : 2, 40: 1
Режим частоты кадров : Постоянный
Частота кадров : 23, 976 (24000/1001) кадра/сек
Цветовое пространство : YUV
Субдискретизация насыщенности : 4: 2: 0
Битовая глубина : 10 бит
Бит/(Пиксели*Кадры) : 0.230
Размер потока : 5, 67 Гбайт (89%)
Заголовок : Next/Rip by OldGamer
Библиотека кодирования : x265 3.4+1-7b120308dc64: WindowsGCC 10.1.064 bit 10bit
Настройки программы : cpuid=1111039/frame-threads=3/numa-pools=8/wpp/no-pmode/no-pme/no-psnr/no-ssim/log-level=2/input-csp=1/input-res=1920x796/interlace=0/total-frames=138359/level-idc=41/high-tier=1/uhd-bd=0/ref=5/no-allow-non-conformance/no-repeat-t_heads/annexb/no-aud/no-hrd/info/hash=0/no-temporal-layers/open-gop/min-keyint=23/keyint=240/gop-lookahead=0/bframes=14/b-adapt=2/b-pyramid/bframe-bias=0/rc-lookahead=60/lookahead-slices=0/scenecut=40/hist-scenecut=0/radl=0/no-splice/no-intra-refresh/ctu=64/min-cu-size=8/rect/amp/max-tu-size=32/tu-inter-depth=4/tu-intra-depth=4/limit-tu=1/rdoq-level=2/dynamic-rd=0.00/no-ssim-rd/signhide/no-tskip/nr-intra=0/nr-inter=0/no-constrained-intra/no-strong-intra-smoothing/max-merge=5/limit-refs=3/no-limit-modes/me=3/subme=7/merange=57/temporal-mvp/no-frame-dup/no-hme/weightp/weightb/no-analyze-src-pics/deblock=-3: -3/no-sao/no-sao-non-deblock/rd=6/selective-sao=0/no-early-skip/rskip/no-fast-intra/no-tskip-fast/no-cu-lossless/b-intra/no-splitrd-skip/rdpenalty=0/psy-rd=2.00/psy-rdoq=1.00/no-rd-refine/no-lossless/cbqpoffs=0/crqpoffs=0/rc=crf/crf=18.0/qcomp=0.60/qpstep=4/stats-write=0/stats-read=0/vbv-maxrate=50000/vbv-bufsize=50000/vbv-init=0.9/crf-max=0.0/crf-min=0.0/ipratio=1.40/pbratio=1.30/aq-mode=2/aq-strength=0.80/no-cutree/zone-count=1/zones: /start-frame=130261/end-frame=138342/qp=36/no-strict-cbr/qg-size=32/no-rc-grain/qpmax=69/qpmin=0/no-const-vbv/sar=1/overscan=0/videoformat=5/range=0/colorprim=2/transfer=2/colormatrix=2/chromaloc=0/display-window=0/cll=0, 0/min-luma=0/max-luma=1023/log2-max-poc-lsb=8/vui-timing-info/vui-hrd-info/slices=1/no-opt-qp-pps/no-opt-ref-list-length-pps/no-multi-pass-opt-rps/scenecut-bias=0.00/hist-threshold=0.01/no-opt-cu-delta-qp/no-aq-motion/no-hdr10/no-hdr10-opt/no-dhdr10-opt/no-idr-recovery-sei/analysis-reuse-level=0/analysis-save-reuse-level=0/analysis-load-reuse-level=0/scale-factor=0/refine-intra=0/refine-inter=0/refine-mv=1/refine-ctu-distortion=0/no-limit-sao/ctu-info=0/no-lowpass-dct/refine-analysis-type=0/copy-pic=1/max-ausize-factor=1.0/no-dynamic-refine/no-single-sei/no-hevc-aq/no-svt/no-field/qp-adaptation-range=1.00/no-scenecut-aware-qpconformance-window-offsets/right=0/bottom=0/decoder-max-rate=0
Язык : English
Default : Да
Forced : Нет
Аудио #1
Идентификатор : 2
ID in the original source medium : 4354 (0x1102)
Формат : AC-3
Формат/Информация : Audio Coding 3
Коммерческое название : Dolby Digital
Идентификатор кодека : A_AC3
Продолжительность : 1 ч. 36 м.
Вид битрейта : Постоянный
Битрейт : 448 Кбит/сек
Каналы : 6 каналов
Channel layout : L R C LFE Ls Rs
Частота : 48, 0 КГц
Частота кадров : 31, 250 кадров/сек (1536 SPF)
Метод сжатия : С потерями
Размер потока : 308 Мбайт (5%)
Заголовок : Дублированный
Язык : Russian
Service kind : Complete Main
Default : Да
Forced : Нет
Носитель оригинала : Blu-ray
Аудио #2
Идентификатор : 3
ID in the original source medium : 4352 (0x1100)
Формат : AC-3
Формат/Информация : Audio Coding 3
Коммерческое название : Dolby Digital
Идентификатор кодека : A_AC3
Продолжительность : 1 ч. 36 м.
Вид битрейта : Постоянный
Битрейт : 640 Кбит/сек
Каналы : 6 каналов
Channel layout : L R C LFE Ls Rs
Частота : 48, 0 КГц
Частота кадров : 31, 250 кадров/сек (1536 SPF)
Метод сжатия : С потерями
Размер потока : 440 Мбайт (7%)
Заголовок : Original
Язык : English
Service kind : Complete Main
Default : Нет
Forced : Нет
Носитель оригинала : Blu-ray
Текст #1
Идентификатор : 4
Формат : UTF-8
Идентификатор кодека : S_TEXT/UTF8
Идентификатор кодека/Информация : UTF-8 Plain Text
Продолжительность : 1 ч. 30 м.
Битрейт : 80 бит/сек
Count of elements : 931
Размер потока : 53, 3 Кбайт (0%)
Язык : Russian
Default : Нет
Forced : Нет
Текст #2
Идентификатор : 5
Формат : UTF-8
Идентификатор кодека : S_TEXT/UTF8
Идентификатор кодека/Информация : UTF-8 Plain Text
Продолжительность : 1 ч. 27 м.
Битрейт : 52 бит/сек
Count of elements : 988
Размер потока : 33, 5 Кбайт (0%)
Язык : English
Default : Нет
Forced : Нет
Меню
00: 00: 00.000 : en: Chapter 01
00: 02: 28.815 : en: Chapter 02
00: 10: 06.230 : en: Chapter 03
00: 11: 45.955 : en: Chapter 04
00: 16: 14.807 : en: Chapter 05
00: 20: 14.296 : en: Chapter 06
00: 21: 02.552 : en: Chapter 07
00: 27: 54.881 : en: Chapter 08
00: 30: 17.148 : en: Chapter 09
00: 36: 18.342 : en: Chapter 10
00: 42: 12.321 : en: Chapter 11
00: 48: 20.397 : en: Chapter 12
00: 56: 10.408 : en: Chapter 13
01: 02: 01.092 : en: Chapter 14
01: 11: 04.551 : en: Chapter 15
01: 19: 16.501 : en: Chapter 16
01: 26: 07.078 : en: Chapter 17
01: 30: 36.347 : en: Chapter 18

Скриншоты для ознакомления



Все одноименные релизы в Клубе
Время раздачи: 24/7 (круглосуточно) (до появления первых 3-5 скачавших)
 
Уважаемый посетитель, Вы зашли на сайт как незарегистрированный пользователь. Мы рекомендуем Вам зарегистрироваться либо зайти на сайт под своим именем.

Другие новости по теме:

  • Пророк / Next (2007) BDRip [H.265 / 1080p-LQ]
  • Пророк / Next (2007) BDRip [H.264 / 1080p] [Open Matte]
  • Пророк / Next (2007) BDRip [H.264 / 720p]


  • Информация
    Посетители, находящиеся в группе Гости, не могут оставлять комментарии в данной новости.
    Главная страница | Регистрация | Добавить новость | Новое на сайте Copyright © 2019. bolt.mmix.club All Rights Reserved