Подписывайся на наш канал в Telegram https://t.me/torrentok и получи доступ к торрентам без ограничений!
. bolt.mmix.club
Авторские права
con...@...Показать
Вход на сайт
Логин:
Пароль:
 
Навигация по сайту
Популярные статьи

Торрент трекер | Скачать торрент | Скачать через Торрент | Скачать торрент бесплатно | Скачать торрент без регистрации Фильмы торрент скачать Мачете убивает / Machete Kills (2013) BDRip [H.264 / 720p] торрент скачать бесплатно

Мачете убивает / Machete Kills (2013) BDRip [H.264 / 720p] торрент скачать бесплатно

Фильмы торрент скачать
Мачете убивает / Machete Kills (2013) BDRip [H.264 / 720p]Производство: США, Россия/AR Films, Aldamisa Entertainment, 1821 Pictures
Жанр: боевик, комедия
Режиссер: Роберт Родригес

Актеры
Дэнни Трехо, Мишель Родригес, Эмбер Хёрд, Демиан Бишир, Мэл Гибсон, София Вергара, Чарли Шин, Леди Гага, Алекса Вега, Антонио Бандерас, Кьюба Гудинг мл., Джессика Альба

Описание

Правительство США вербует Мачете для миссии, которую не под силу выполнить простому смертному. Мачете прорывается в Мексику, чтобы схватить безумного лидера карательного отряда и эксцентричного миллиардера, торгующего оружием, который, в свою очередь, лелеет мечту начать войну планетарного масштаба и запустить смертельно опасное оружие в космос. И только Мачете может предотвратить этот глобальный хаос.


Возраст: 16+ (зрителям, достигшим 16 лет)
Рейтинг MPAA: R (лицам до 17 лет обязательно присутствие взрослого)
Продолжительность: 01: 47: 59
Качество видео: BDRip
Перевод: Дублированный, авторский
Субтитры: русские, английские
Видео: AVC/H.264, 1280x694, ~7619 kbps
Аудио 1: AC3, 6 ch, 640 kbps, Русский (DUB Blu-ray)
Аудио 2: AC3, 6 ch, 640 kbps, Русский (AVO Д.Есарев)(ненормативная лексика)
Аудио 3: AC3, 6 ch, 448 kbps, Русский (AVO А.Карповский)
Аудио 4: AC3, 6 ch, 448 kbps, Русский (AVO В.Горчаков)
Аудио 5: AC3, 6 ch, 640 kbps, Английский
Общее
Уникальный идентификатор : 226289762316129200485936254491136902952 (0xAA3DD2ABE31ECA66B8F2100ADA084728)
Полное имя : F: CINEMAMachete.Kills.2013.BDRip.720p.mkv
Формат : Matroska
Версия формата : Version 4
Размер файла : 7, 88 Гбайт
Продолжительность : 1 ч. 48 м.
Общий поток : 10, 4 Мбит/сек
Название фильма : Machete Kills (2013)
Дата кодирования : UTC 2020-08-26 10: 06: 53
Программа кодирования : mkvmerge v8.2.0 (\'World of Adventure\') 64bit
Библиотека кодирования : libebml v1.3.1 + libmatroska v1.4.2
Attachments : poster.jpg
Видео
Идентификатор : 1
Формат : AVC
Формат/Информация : Advanced Video Codec
Профиль формата : High@L4.1
Настройки формата : CABAC/9 Ref Frames
Параметр CABAC формата : Да
Параметр RefFrames формата : 9 кадров
Идентификатор кодека : V_MPEG4/ISO/AVC
Продолжительность : 1 ч. 48 м.
Битрейт : 7 619 Кбит/сек
Ширина : 1 280 пикселей
Высота : 694 пикселя
Соотношение сторон : 1, 85: 1
Режим частоты кадров : Постоянный
Частота кадров : 23, 976 (24000/1001) кадра/сек
Цветовое пространство : YUV
Субдискретизация насыщенности : 4: 2: 0
Битовая глубина : 8 бит
Тип развёртки : Прогрессивная
Бит/(Пиксели*Кадры) : 0.358
Размер потока : 5, 75 Гбайт (73%)
Заголовок : Machete Kills
Библиотека кодирования : x264 core 140 r2377kMod 1ca7bb9
Настройки программы : cabac=1/ref=9/deblock=1: -3: -3/analyse=0x3: 0x133/me=tesa/subme=11/psy=1/fade_compensate=0.00/psy_rd=1.00: 0.00/mixed_ref=1/me_range=24/chroma_me=1/trellis=2/8x8dct=1/cqm=0/deadzone=21, 11/fast_pskip=0/chroma_qp_offset=-2/threads=12/lookahead_threads=2/sliced_threads=0/nr=0/decimate=0/interlaced=0/bluray_compat=0/constrained_intra=0/fgo=0/bframes=8/b_pyramid=2/b_adapt=2/b_bias=0/direct=3/weightb=1/open_gop=0/weightp=2/keyint=250/keyint_min=23/scenecut=40/intra_refresh=0/rc_lookahead=40/rc=crf/mbtree=0/crf=17.0000/qcomp=0.70/qpmin=0/qpmax=69/qpstep=4/vbv_maxrate=50000/vbv_bufsize=62500/crf_max=0.0/nal_hrd=none/filler=0/ip_ratio=1.40/pb_ratio=1.30/aq=1: 0.80
Язык : English
Default : Да
Forced : Нет
Цветовой диапазон : Limited
Основные цвета : BT.709
Характеристики трансфера : BT.709
Коэффициенты матрицы : BT.709
Аудио #1
Идентификатор : 2
Формат : AC-3
Формат/Информация : Audio Coding 3
Коммерческое название : Dolby Digital
Идентификатор кодека : A_AC3
Продолжительность : 1 ч. 47 м.
Вид битрейта : Постоянный
Битрейт : 640 Кбит/сек
Каналы : 6 каналов
Channel layout : L R C LFE Ls Rs
Частота : 48, 0 КГц
Частота кадров : 31, 250 кадров/сек (1536 SPF)
Метод сжатия : С потерями
Размер потока : 494 Мбайт (6%)
Заголовок : Dub Blu-ray
Язык : Russian
Service kind : Complete Main
Default : Нет
Forced : Нет
Аудио #2
Идентификатор : 3
Формат : AC-3
Формат/Информация : Audio Coding 3
Коммерческое название : Dolby Digital
Идентификатор кодека : A_AC3
Продолжительность : 1 ч. 47 м.
Вид битрейта : Постоянный
Битрейт : 640 Кбит/сек
Каналы : 6 каналов
Channel layout : L R C LFE Ls Rs
Частота : 48, 0 КГц
Частота кадров : 31, 250 кадров/сек (1536 SPF)
Метод сжатия : С потерями
Размер потока : 494 Мбайт (6%)
Заголовок : AVO Д. Есарев
Язык : Russian
Service kind : Complete Main
Default : Да
Forced : Нет
Аудио #3
Идентификатор : 4
Формат : AC-3
Формат/Информация : Audio Coding 3
Коммерческое название : Dolby Digital
Идентификатор кодека : A_AC3
Продолжительность : 1 ч. 48 м.
Вид битрейта : Постоянный
Битрейт : 448 Кбит/сек
Каналы : 6 каналов
Channel layout : L R C LFE Ls Rs
Частота : 48, 0 КГц
Частота кадров : 31, 250 кадров/сек (1536 SPF)
Метод сжатия : С потерями
Размер потока : 346 Мбайт (4%)
Заголовок : AVO А.Карповский
Язык : Russian
Service kind : Complete Main
Default : Нет
Forced : Нет
Аудио #4
Идентификатор : 5
Формат : AC-3
Формат/Информация : Audio Coding 3
Коммерческое название : Dolby Digital
Идентификатор кодека : A_AC3
Продолжительность : 1 ч. 48 м.
Вид битрейта : Постоянный
Битрейт : 448 Кбит/сек
Каналы : 6 каналов
Channel layout : L R C LFE Ls Rs
Частота : 48, 0 КГц
Частота кадров : 31, 250 кадров/сек (1536 SPF)
Метод сжатия : С потерями
Размер потока : 346 Мбайт (4%)
Заголовок : AVO В.Горчаков
Язык : Russian
Service kind : Complete Main
Default : Нет
Forced : Нет
Аудио #5
Идентификатор : 6
Формат : AC-3
Формат/Информация : Audio Coding 3
Коммерческое название : Dolby Digital
Идентификатор кодека : A_AC3
Продолжительность : 1 ч. 48 м.
Вид битрейта : Постоянный
Битрейт : 640 Кбит/сек
Каналы : 6 каналов
Channel layout : L R C LFE Ls Rs
Частота : 48, 0 КГц
Частота кадров : 31, 250 кадров/сек (1536 SPF)
Метод сжатия : С потерями
Размер потока : 495 Мбайт (6%)
Заголовок : Original
Язык : English
Service kind : Complete Main
Default : Нет
Forced : Нет
Текст #1
Идентификатор : 7
Формат : UTF-8
Идентификатор кодека : S_TEXT/UTF8
Идентификатор кодека/Информация : UTF-8 Plain Text
Продолжительность : 1 ч. 46 м.
Битрейт : 89 бит/сек
Count of elements : 1226
Размер потока : 69, 6 Кбайт (0%)
Заголовок : RUS Д.Есарев
Язык : Russian
Default : Да
Forced : Нет
Текст #2
Идентификатор : 8
Формат : UTF-8
Идентификатор кодека : S_TEXT/UTF8
Идентификатор кодека/Информация : UTF-8 Plain Text
Продолжительность : 1 ч. 46 м.
Битрейт : 51 бит/сек
Count of elements : 1193
Размер потока : 40, 4 Кбайт (0%)
Заголовок : full
Язык : English
Default : Нет
Forced : Нет
Текст #3
Идентификатор : 9
Формат : UTF-8
Идентификатор кодека : S_TEXT/UTF8
Идентификатор кодека/Информация : UTF-8 Plain Text
Продолжительность : 1 ч. 46 м.
Битрейт : 56 бит/сек
Count of elements : 1395
Размер потока : 44, 2 Кбайт (0%)
Заголовок : SDH
Язык : English
Default : Нет
Forced : Нет
Меню
00: 00: 00.000 : en: 00: 00: 00.000
00: 07: 48.760 : en: 00: 07: 48.760
00: 12: 12.398 : en: 00: 12: 12.398
00: 19: 27.583 : en: 00: 19: 27.583
00: 25: 25.399 : en: 00: 25: 25.399
00: 30: 35.959 : en: 00: 30: 35.959
00: 34: 15.345 : en: 00: 34: 15.345
00: 39: 33.121 : en: 00: 39: 33.121
00: 45: 35.107 : en: 00: 45: 35.107
00: 50: 30.236 : en: 00: 50: 30.236
00: 55: 07.429 : en: 00: 55: 07.429
00: 59: 08.295 : en: 00: 59: 08.295
01: 06: 55.929 : en: 01: 06: 55.929
01: 11: 56.938 : en: 01: 11: 56.938
01: 16: 38.177 : en: 01: 16: 38.177
01: 20: 34.538 : en: 01: 20: 34.538
01: 25: 08.812 : en: 01: 25: 08.812
01: 30: 13.158 : en: 01: 30: 13.158
01: 37: 43.483 : en: 01: 37: 43.483
01: 41: 54.233 : en: 01: 41: 54.233

Скриншоты для ознакомления



Все одноименные релизы в Клубе
Время раздачи: c 5 до 19 мск (до появления первых 3-5 скачавших)
 
Уважаемый посетитель, Вы зашли на сайт как незарегистрированный пользователь. Мы рекомендуем Вам зарегистрироваться либо зайти на сайт под своим именем.

Другие новости по теме:

  • LaScala - Мачете (2015) [MP3|320 кб / с] <Alternative Rock> скачать через торрент бесплатно
  • Мачете (Machete) - Impuls (2019) [MP3|320 Kbps] <Rock-Pop>


  • Информация
    Посетители, находящиеся в группе Гости, не могут оставлять комментарии в данной новости.
    Главная страница | Регистрация | Добавить новость | Новое на сайте Copyright © 2019. bolt.mmix.club All Rights Reserved