Подписывайся на наш канал в Telegram https://t.me/torrentok и получи доступ к торрентам без ограничений!
. bolt.mmix.club
Авторские права
con...@...Показать
Вход на сайт
Логин:
Пароль:
 
Навигация по сайту
Популярные статьи

Торрент трекер | Скачать торрент | Скачать через Торрент | Скачать торрент бесплатно | Скачать торрент без регистрации Фильмы торрент скачать Вий (1967) BDRip [H.264 / 1080p] [US Transfer] торрент скачать бесплатно

Вий (1967) BDRip [H.264 / 1080p] [US Transfer] торрент скачать бесплатно

Фильмы торрент скачать
Вий (1967) BDRip [H.264 / 1080p] [US Transfer]Производство: СССР/Луч, Мосфильм
Жанр: Ужасы, фэнтези, драма
Режиссер: Георгий Кропачев, Константин Ершов

Актеры
Леонид Куравлёв, Наталья Варлей, Алексей Глазырин, Николай Кутузов, Вадим Захарченко, Петр Вескляров, Владимир Сальников, Дмитрий Капка, Степан Шкурат, Георгий Сочевко

Описание

Студент-философ Хома Брут должен провести несколько ночей у гроба умершей панночки в старой церквушке в далекой деревне. Сможет ли он побороть свой страх, или ему придется столкнуться с нечистой силой?


Возраст: 12+ (зрителям, достигшим 12 лет)
Релиз от: KORSAR
Продолжительность: 01: 16: 35
Качество видео: BDRip
Перевод: Не требуется
Субтитры: Русские, английские
Видео: AVC/H.264, 1480х1080, ~13.3 Mbps
Аудио: AC3, 2 ch, 448 Kbps - Русскийx264 info: frame I: 534 Avg QP: 16.30 size: 223513
x264 info: frame P: 26112 Avg QP: 18.67 size: 137703
x264 info: frame B: 82919 Avg QP: 20.09 size: 54295
=========================================================
General
Unique ID : 187153170692822108063941454659812598626 (0x8CCC63BA5D11F02D1F863C951D602362)
Complete name : Вий (1967) US Transfer BDRip 1080p - KORSAR.mkv
Format : Matroska
Format version : Version 4/Version 2
File size : 7.36 GiB
Duration : 1 h 16 min
Overall bit rate : 13.8 Mb/s
Movie name : Вий (1967)_rip_dy_Cthulhu
Encoded date : UTC 2019-11-12 16: 52: 48
Writing application : mkvmerge v37.0.0 (\'Leave It\') 64-bit
Writing library : libebml v1.3.9 + libmatroska v1.5.2
Cover : Yes
Attachments : cover1.png
Video
ID : 1
Format : AVC
Format/Info : Advanced Video Codec
Format profile : High@L4.1
Format settings : CABAC/5 Ref Frames
Format settings, CABAC : Yes
Format settings, ReFrames : 5 frames
Codec ID : V_MPEG4/ISO/AVC
Duration : 1 h 16 min
Bit rate : 13.3 Mb/s
Width : 1 480 pixels
Height : 1 080 pixels
Display aspect ratio : 1.370
Frame rate mode : Constant
Frame rate : 23.976 (24000/1001) FPS
Color space : YUV
Chroma subsampling : 4: 2: 0
Bit depth : 8 bits
Scan type : Progressive
Bits/(Pixel*Frame) : 0.347
Stream size : 7.12 GiB (97%)
Writing library : x264 core 152 r2851kMod ba24899
Encoding settings : cabac=1/ref=5/deblock=1: -2: -2/analyse=0x3: 0x133/me=umh/subme=11/psy=1/fade_compensate=0.00/psy_rd=1.00: 0.03/mixed_ref=1/me_range=48/chroma_me=1/trellis=2/8x8dct=1/cqm=0/deadzone=21, 11/fast_pskip=0/chroma_qp_offset=-3/threads=24/lookahead_threads=6/sliced_threads=0/nr=0/decimate=1/interlaced=0/bluray_compat=0/constrained_intra=0/bframes=10/b_pyramid=2/b_adapt=2/b_bias=0/direct=3/weightb=1/open_gop=0/weightp=2/keyint=240/keyint_min=23/scenecut=40/intra_refresh=0/rc_lookahead=60/rc=crf/mbtree=0/crf=18.0000/qcomp=0.62/qpmin=0/qpmax=39/qpstep=4/vbv_maxrate=50000/vbv_bufsize=62500/crf_max=0.0/nal_hrd=none/filler=0/ip_ratio=1.40/pb_ratio=1.30/aq=2: 1.00
Language : Russian
Default : Yes
Forced : No
Color range : Limited
Color primaries : BT.709
Transfer characteristics : BT.709
Matrix coefficients : BT.709
Audio
ID : 2
Format : AC-3
Format/Info : Audio Coding 3
Commercial name : Dolby Digital
Codec ID : A_AC3
Duration : 1 h 16 min
Bit rate mode : Constant
Bit rate : 448 kb/s
Channel(s) : 2 channels
Channel layout : L R
Sampling rate : 48.0 kHz
Frame rate : 31.250 FPS (1536 SPF)
Bit depth : 16 bits
Compression mode : Lossy
Stream size : 245 MiB (3%)
Language : Russian
Service kind : Complete Main
Default : Yes
Forced : No
Text #1
ID : 3
Format : UTF-8
Codec ID : S_TEXT/UTF8
Codec ID/Info : UTF-8 Plain Text
Duration : 1 h 14 min
Bit rate : 46 b/s
Count of elements : 471
Stream size : 25.3 KiB (0%)
Language : Russian
Default : No
Forced : No
Text #2
ID : 4
Format : UTF-8
Codec ID : S_TEXT/UTF8
Codec ID/Info : UTF-8 Plain Text
Duration : 1 h 15 min
Bit rate : 30 b/s
Count of elements : 472
Stream size : 17.0 KiB (0%)
Language : English
Default : No
Forced : No
Text #3
ID : 5
Format : UTF-8
Codec ID : S_TEXT/UTF8
Codec ID/Info : UTF-8 Plain Text
Duration : 1 h 15 min
Bit rate : 47 b/s
Count of elements : 896
Stream size : 26.2 KiB (0%)
Title : SDH
Language : English
Default : No
Forced : No
Menu
00: 00: 00.000 : ru: Титры/Начало каникул в семинарии
00: 05: 28.203 : ru: Поиски ночлега
00: 12: 04.306 : ru: Мистические приключения
00: 15: 27.885 : ru: Приказ ректора
00: 18: 38.992 : ru: В дороге
00: 28: 11.188 : ru: Последнее желание панночки
00: 32: 17.601 : ru: Прощание с покойной
00: 39: 10.054 : ru: Первая ночь в церкви
00: 46: 03.217 : ru: Наутро
00: 50: 07.168 : ru: Кошмары второй ночи
00: 55: 33.911 : ru: Музыкантов! Непременно музыкантов!
00: 57: 18.015 : ru: Разговор с паном сотником
01: 01: 36.315 : ru: Побег не удался...
01: 05: 55.699 : ru: Чертовщина третьей ночи
01: 13: 08.005 : ru: Эпилог. Поминание Хомы Брута
JPN Transfer-----vs-----US Transfer: https://screenshotcomparison.com/comparison/5793/
Скриншоты для ознакомления



Все одноименные релизы в Клубе
Время раздачи: 24/7 (мультитрекерная раздача)
 
Уважаемый посетитель, Вы зашли на сайт как незарегистрированный пользователь. Мы рекомендуем Вам зарегистрироваться либо зайти на сайт под своим именем.

Другие новости по теме:

  • Вий (1967) BDRip [H.264 / 720p] [US Transfer]
  • Вий (1967) BDRip [H.265 / 1080p] [10-bit] [US Transfer]
  • Посвященный / The Giver (2014) BDRip [720p] [US Transfer] скачать через торрент бесплатно
  • Посвященный / The Giver (2014) BDRip [US Transfer]
  • Посвященный / The Giver (2014) BDRip [1080p] [US Transfer] скачать через торрент бесплатно
  • Посвященный / The Giver (2014) BDRip [US Transfer]
  • Ixion Saga DT / Ixion Saga: Dimension Transfer / Иксион сага: Пространственный переход [2012, TV, 25 ep] BDRip Hi10p 720p Raw+Rus скачать через торрент бесплатно
  • Скалолаз / Cliffhanger (1993) BDRip [h264] [US Transfer] [AVO] скачать через торрент бесплатно


  • Информация
    Посетители, находящиеся в группе Гости, не могут оставлять комментарии в данной новости.
    Главная страница | Регистрация | Добавить новость | Новое на сайте Copyright © 2019. bolt.mmix.club All Rights Reserved