Подписывайся на наш канал в Telegram https://t.me/torrentok и получи доступ к торрентам без ограничений!
. bolt.mmix.club
Авторские права
con...@...Показать
Вход на сайт
Логин:
Пароль:
 
Навигация по сайту
Популярные статьи

Торрент трекер | Скачать торрент | Скачать через Торрент | Скачать торрент бесплатно | Скачать торрент без регистрации Фильмы торрент скачать Фотограф / The Public Eye (1992) BDRip [H.264 / 720p] торрент скачать бесплатно

Фотограф / The Public Eye (1992) BDRip [H.264 / 720p] торрент скачать бесплатно

Фильмы торрент скачать
Фотограф / The Public Eye (1992) BDRip [H.264 / 720p]Производство: США/Universal Pictures
Жанр: Триллер, криминал, детектив
Режиссер: Ховард Франклин

Актеры
Джо Пеши, Барбара Херши, Стэнли Туччи, Ричард Рили, Джаред Харрис, Доминик Кьянезе, Боб Гантон, Джерри Эдлер, Дель Клоуз, Тимоти Хендирксон

Описание

Нью-Йорк, 40-е годы. Жизнь фотографа Леона Бернштейна полностью подчинена его работе. Он - профессионал номер один и не зря носит прозвище Великий Бернзини. Пронырливый Леон всегда и везде первый. Ему удаётся опережать даже полицию и первым прибывать на место преступления, делая самые сенсационные снимки. Но однажды Леон попадает в переплёт: его фотообъектив запечатлевает кровавую разборку двух крупных мафиозных кланов.


Возраст: 16+ (зрителям, достигшим 16 лет)
Рейтинг MPAA: R (лицам до 17 лет обязательно присутствие взрослого)
Релиз от: KORSAR
Продолжительность: 01: 39: 02
Качество видео: BDRip
Перевод: Профессиональный многоголосый, авторский
Субтитры: Английские
Видео: AVC/H.264, 1280x694, ~4404 Kbps
Аудио 1: AC3, 2 ch, 192 Kbps - Русский (MVO)
Аудио 2: AC3, 2 ch, 192 Kbps - Русский (MVO, ОРТ)
Аудио 3: AC3, 2 ch, 192 Kbps - Русский (AVO, А. Михалёв)
Аудио 4: AC3, 2 ch, 448 Kbps - Английский (Оригинал)x264 info: frame I: 1018 Avg QP: 16.00 size: 151184
x264 info: frame P: 28777 Avg QP: 17.79 size: 54823
x264 info: frame B: 112021 Avg QP: 20.44 size: 13608
=========================================================
General
Unique ID : 87500251698345314014655228352689089807 (0x41D3EF7C306D6081D9EEEE3099842D0F)
Complete name : Фотограф - The Public Eye (1992) BDRip 720p - KORSAR.mkv
Format : Matroska
Format version : Version 4/Version 2
File size : 3.74 GiB
Duration : 1 h 39 min
Overall bit rate : 5 408 kb/s
Movie name : The Public Eye (1992)_rip_by_Cthulhu
Encoded date : UTC 2020-08-07 15: 58: 02
Writing application : mkvmerge v46.0.0 (\'No Deeper Escape\') 64-bit
Writing library : libebml v1.3.10 + libmatroska v1.5.2
Cover : Yes
Attachments : cover7.jpg
Video
ID : 1
Format : AVC
Format/Info : Advanced Video Codec
Format profile : High@L4.1
Format settings : CABAC/9 Ref Frames
Format settings, CABAC : Yes
Format settings, ReFrames : 9 frames
Codec ID : V_MPEG4/ISO/AVC
Duration : 1 h 38 min
Bit rate : 4 404 kb/s
Width : 1 280 pixels
Height : 694 pixels
Display aspect ratio : 1.85: 1
Frame rate mode : Constant
Frame rate : 23.976 (24000/1001) FPS
Color space : YUV
Chroma subsampling : 4: 2: 0
Bit depth : 8 bits
Scan type : Progressive
Bits/(Pixel*Frame) : 0.207
Stream size : 3.03 GiB (81%)
Writing library : x264 core 152 r2851kMod ba24899
Encoding settings : cabac=1/ref=9/deblock=1: -2: -2/analyse=0x3: 0x133/me=umh/subme=11/psy=1/fade_compensate=0.00/psy_rd=1.00: 0.05/mixed_ref=1/me_range=48/chroma_me=1/trellis=2/8x8dct=1/cqm=0/deadzone=21, 11/fast_pskip=0/chroma_qp_offset=-3/threads=22/lookahead_threads=5/sliced_threads=0/nr=0/decimate=1/interlaced=0/bluray_compat=0/constrained_intra=0/bframes=12/b_pyramid=2/b_adapt=2/b_bias=0/direct=3/weightb=1/open_gop=0/weightp=2/keyint=240/keyint_min=23/scenecut=40/intra_refresh=0/rc_lookahead=60/rc=crf/mbtree=0/crf=18.0000/qcomp=0.60/qpmin=0/qpmax=39/qpstep=4/vbv_maxrate=50000/vbv_bufsize=62500/crf_max=0.0/nal_hrd=none/filler=0/ip_ratio=1.40/pb_ratio=1.30/aq=2: 1.00
Language : English
Default : Yes
Forced : No
Color range : Limited
Color primaries : BT.709
Transfer characteristics : BT.709
Matrix coefficients : BT.709
Audio #1
ID : 2
Format : AC-3
Format/Info : Audio Coding 3
Commercial name : Dolby Digital
Codec ID : A_AC3
Duration : 1 h 39 min
Bit rate mode : Constant
Bit rate : 192 kb/s
Channel(s) : 2 channels
Channel layout : L R
Sampling rate : 48.0 kHz
Frame rate : 31.250 FPS (1536 SPF)
Bit depth : 16 bits
Compression mode : Lossy
Stream size : 136 MiB (4%)
Title : MVO
Language : Russian
Service kind : Complete Main
Default : Yes
Forced : No
Audio #2
ID : 3
Format : AC-3
Format/Info : Audio Coding 3
Commercial name : Dolby Digital
Codec ID : A_AC3
Duration : 1 h 39 min
Bit rate mode : Constant
Bit rate : 192 kb/s
Channel(s) : 2 channels
Channel layout : L R
Sampling rate : 48.0 kHz
Frame rate : 31.250 FPS (1536 SPF)
Bit depth : 16 bits
Compression mode : Lossy
Stream size : 136 MiB (4%)
Title : MVO (ОРТ)
Language : Russian
Service kind : Complete Main
Default : No
Forced : No
Audio #3
ID : 4
Format : AC-3
Format/Info : Audio Coding 3
Commercial name : Dolby Digital
Codec ID : A_AC3
Duration : 1 h 39 min
Bit rate mode : Constant
Bit rate : 192 kb/s
Channel(s) : 2 channels
Channel layout : L R
Sampling rate : 48.0 kHz
Frame rate : 31.250 FPS (1536 SPF)
Bit depth : 16 bits
Compression mode : Lossy
Stream size : 136 MiB (4%)
Title : AVO (Михалев)
Language : Russian
Service kind : Complete Main
Default : No
Forced : No
Audio #4
ID : 5
Format : AC-3
Format/Info : Audio Coding 3
Commercial name : Dolby Digital
Codec ID : A_AC3
Duration : 1 h 38 min
Bit rate mode : Constant
Bit rate : 448 kb/s
Channel(s) : 2 channels
Channel layout : L R
Sampling rate : 48.0 kHz
Frame rate : 31.250 FPS (1536 SPF)
Bit depth : 16 bits
Compression mode : Lossy
Stream size : 316 MiB (8%)
Language : English
Service kind : Complete Main
Default : No
Forced : No
Text
ID : 6
Format : UTF-8
Codec ID : S_TEXT/UTF8
Codec ID/Info : UTF-8 Plain Text
Duration : 1 h 31 min
Bit rate : 62 b/s
Count of elements : 1096
Stream size : 41.9 KiB (0%)
Language : English
Default : No
Forced : No
Menu
00: 00: 00.000 : en: 00: 00: 00.000
00: 10: 06.314 : en: 00: 10: 06.314
00: 22: 20.005 : en: 00: 22: 20.005
00: 37: 56.441 : en: 00: 37: 56.441
00: 47: 33.851 : en: 00: 47: 33.851
01: 00: 34.089 : en: 01: 00: 34.089
01: 13: 15.558 : en: 01: 13: 15.558
01: 26: 17.672 : en: 01: 26: 17.672

Скриншоты для ознакомления



Все одноименные релизы в Клубе
Время раздачи: 24/7 (мультитрекерная раздача)
 
Уважаемый посетитель, Вы зашли на сайт как незарегистрированный пользователь. Мы рекомендуем Вам зарегистрироваться либо зайти на сайт под своим именем.

Другие новости по теме:

  • Фотограф / The Public Eye (1992) BDRip [H.265 / 1080p] [10-bit]
  • Фотограф / The Public Eye (1992) DVDRip


  • Информация
    Посетители, находящиеся в группе Гости, не могут оставлять комментарии в данной новости.
    Главная страница | Регистрация | Добавить новость | Новое на сайте Copyright © 2019. bolt.mmix.club All Rights Reserved