Подписывайся на наш канал в Telegram https://t.me/torrentok и получи доступ к торрентам без ограничений!
. bolt.mmix.club
Авторские права
con...@...Показать
Вход на сайт
Логин:
Пароль:
 
Навигация по сайту
Популярные статьи

Торрент трекер | Скачать торрент | Скачать через Торрент | Скачать торрент бесплатно | Скачать торрент без регистрации Фильмы торрент скачать Мистер и миссис Смит / Mr. & Mrs. Smith (2005) BDRip [H.264 / 720p] торрент скачать бесплатно

Мистер и миссис Смит / Mr. & Mrs. Smith (2005) BDRip [H.264 / 720p] торрент скачать бесплатно

Фильмы торрент скачать
Мистер и миссис Смит / Mr. & Mrs. Smith (2005) BDRip [H.264 / 720p]Производство: США/Regency Enterprises, New Regency Pictures, Summit Entertainment
Жанр: боевик, комедия, триллер, криминал
Режиссер: Даг Лайман

Актеры
Брэд Питт, Анджелина Джоли, Винс Вон, Адам Броди, Керри Вашингтон, Кейт Дэвид, Крис Вейц, Рэйчел Хантли, Мишель Монахэн, Стефани Марч

Описание

Джон и Джейн женаты не так давно, но уже устали от брака. Им кажется, что они знают друг о друге всё. Но есть кое-что, что каждый предпочитает держать при себе: оба они – наёмные убийцы, которые тайно путешествуют по миру, выполняя опасные миссии. Эти отдельные тайные приключения становятся их общей судьбой в тот момент, когда Джейн получает заказ на Джона, а Джон - на Джейн.


Возраст: 16+ (зрителям, достигшим 16 лет)
Рейтинг MPAA: PG-13 (детям до 13 лет просмотр нежелателен)
Релиз от: HQCLUB
Продолжительность: 01: 59: 58
Качество видео: BDRip
Перевод: Дублированный, авторский
Субтитры: русские, английские
Видео: AVC/H.264, 1280x544, ~6150 kbps
Аудио 1: AC3, 6 ch, 640 kbps, Русский (DUB BD CEE)
Аудио 2: AC3, 6 ch, 640 kbps, Русский (AVO А.Гаврилов)
Аудио 3: AC3, 6 ch, 640 kbps, Английский
Общее
Уникальный идентификатор : 194371117338051948121245938913081682993 (0x923A83F927623A799FE9F5389871EC31)
Полное имя : F: CINEMAMister.I.Missis.Smit.2005.BluRay.720p.mkv
Формат : Matroska
Версия формата : Version 4
Размер файла : 6, 76 Гбайт
Продолжительность : 1 ч. 59 м.
Общий поток : 8 073 Кбит/сек
Название фильма : Мистер и миссис Смит/Mr. and Mrs. Smith (2005) Blu-ray 720p
Дата кодирования : UTC 2016-09-25 18: 11: 22
Программа кодирования : mkvmerge v8.3.0 (\'Over the Horizon\') 64bit
Библиотека кодирования : libebml v1.3.1 + libmatroska v1.4.2
Обложка : Yes
Attachments : Cover.png
Видео
Идентификатор : 1
Формат : AVC
Формат/Информация : Advanced Video Codec
Профиль формата : High@L4.1
Настройки формата : CABAC/10 Ref Frames
Параметр CABAC формата : Да
Параметр RefFrames формата : 10 кадров
Идентификатор кодека : V_MPEG4/ISO/AVC
Продолжительность : 1 ч. 59 м.
Битрейт : 6 150 Кбит/сек
Ширина : 1 280 пикселей
Высота : 544 пикселя
Соотношение сторон : 2, 35: 1
Режим частоты кадров : Постоянный
Частота кадров : 23, 976 (24000/1001) кадра/сек
Цветовое пространство : YUV
Субдискретизация насыщенности : 4: 2: 0
Битовая глубина : 8 бит
Тип развёртки : Прогрессивная
Бит/(Пиксели*Кадры) : 0.368
Размер потока : 5, 15 Гбайт (76%)
Заголовок : Release by Rensler
Библиотека кодирования : x264 core 148 r2692 64f4e24
Настройки программы : cabac=1/ref=10/deblock=1: -3: -3/analyse=0x3: 0x113/me=umh/subme=11/psy=1/psy_rd=1.00: 0.00/mixed_ref=1/me_range=64/chroma_me=1/trellis=2/8x8dct=1/cqm=0/deadzone=21, 11/fast_pskip=0/chroma_qp_offset=-2/threads=3/lookahead_threads=1/sliced_threads=0/nr=0/decimate=0/interlaced=0/bluray_compat=0/constrained_intra=0/bframes=7/b_pyramid=2/b_adapt=2/b_bias=0/direct=3/weightb=1/open_gop=0/weightp=2/keyint=230/keyint_min=23/scenecut=40/intra_refresh=0/rc_lookahead=60/rc=2pass/mbtree=0/bitrate=6150/ratetol=1.0/qcomp=0.65/qpmin=0/qpmax=69/qpstep=4/cplxblur=20.0/qblur=0.5/vbv_maxrate=50000/vbv_bufsize=62500/nal_hrd=none/filler=0/ip_ratio=1.28/pb_ratio=1.18/aq=2: 0.80
Default : Да
Forced : Нет
Аудио #1
Идентификатор : 2
Формат : AC-3
Формат/Информация : Audio Coding 3
Коммерческое название : Dolby Digital
Идентификатор кодека : A_AC3
Продолжительность : 1 ч. 59 м.
Вид битрейта : Постоянный
Битрейт : 640 Кбит/сек
Каналы : 6 каналов
Channel layout : L R C LFE Ls Rs
Частота : 48, 0 КГц
Частота кадров : 31, 250 кадров/сек (1536 SPF)
Метод сжатия : С потерями
Размер потока : 549 Мбайт (8%)
Заголовок : BD CEE
Язык : Russian
Service kind : Complete Main
Default : Да
Forced : Нет
Аудио #2
Идентификатор : 3
Формат : AC-3
Формат/Информация : Audio Coding 3
Коммерческое название : Dolby Digital
Идентификатор кодека : A_AC3
Продолжительность : 1 ч. 59 м.
Вид битрейта : Постоянный
Битрейт : 640 Кбит/сек
Каналы : 6 каналов
Channel layout : L R C LFE Ls Rs
Частота : 48, 0 КГц
Частота кадров : 31, 250 кадров/сек (1536 SPF)
Метод сжатия : С потерями
Размер потока : 549 Мбайт (8%)
Заголовок : AVO А.Gavrilov
Язык : Russian
Service kind : Complete Main
Default : Нет
Forced : Нет
Аудио #3
Идентификатор : 4
Формат : AC-3
Формат/Информация : Audio Coding 3
Коммерческое название : Dolby Digital
Идентификатор кодека : A_AC3
Продолжительность : 1 ч. 59 м.
Вид битрейта : Постоянный
Битрейт : 640 Кбит/сек
Каналы : 6 каналов
Channel layout : L R C LFE Ls Rs
Частота : 48, 0 КГц
Частота кадров : 31, 250 кадров/сек (1536 SPF)
Метод сжатия : С потерями
Размер потока : 549 Мбайт (8%)
Заголовок : Original
Язык : English
Service kind : Complete Main
Default : Нет
Forced : Нет
Текст #1
Идентификатор : 5
Формат : UTF-8
Идентификатор кодека : S_TEXT/UTF8
Идентификатор кодека/Информация : UTF-8 Plain Text
Продолжительность : 1 ч. 51 м.
Битрейт : 64 бит/сек
Count of elements : 1079
Размер потока : 53, 1 Кбайт (0%)
Заголовок : Full
Язык : Russian
Default : Нет
Forced : Нет
Текст #2
Идентификатор : 6
Формат : UTF-8
Идентификатор кодека : S_TEXT/UTF8
Идентификатор кодека/Информация : UTF-8 Plain Text
Продолжительность : 1 ч. 51 м.
Битрейт : 36 бит/сек
Count of elements : 876
Размер потока : 29, 5 Кбайт (0%)
Заголовок : Full
Язык : English
Default : Нет
Forced : Нет
Меню
00: 00: 00.000 : en: Chapter 01
00: 02: 04.582 : en: Chapter 02
00: 03: 37.842 : en: Chapter 03
00: 06: 29.430 : en: Chapter 04
00: 09: 07.630 : en: Chapter 05
00: 14: 13.811 : en: Chapter 06
00: 17: 16.243 : en: Chapter 07
00: 22: 50.786 : en: Chapter 08
00: 25: 22.854 : en: Chapter 09
00: 34: 50.129 : en: Chapter 10
00: 39: 37.291 : en: Chapter 11
00: 44: 42.346 : en: Chapter 12
00: 50: 13.427 : en: Chapter 13
00: 52: 55.589 : en: Chapter 14
00: 56: 03.068 : en: Chapter 15
01: 00: 52.565 : en: Chapter 16
01: 05: 59.747 : en: Chapter 17
01: 07: 55.738 : en: Chapter 18
01: 17: 30.437 : en: Chapter 19
01: 23: 57.240 : en: Chapter 20
01: 29: 05.089 : en: Chapter 21
01: 31: 27.523 : en: Chapter 22
01: 35: 48.242 : en: Chapter 23
01: 41: 37.257 : en: Chapter 24
01: 46: 02.147 : en: Chapter 25
01: 50: 01.761 : en: Chapter 26
01: 51: 21.758 : en: Chapter 27
01: 52: 26.573 : en: Chapter 28
01: 58: 49.580 : en: Chapter 29

Скриншоты для ознакомления



Все одноименные релизы в Клубе
Время раздачи: c 5 до 19 мск (до появления первых 3-5 скачавших)
 
Уважаемый посетитель, Вы зашли на сайт как незарегистрированный пользователь. Мы рекомендуем Вам зарегистрироваться либо зайти на сайт под своим именем.

Другие новости по теме:

  • Мистер и Миссис СМИ. Выпуск 1 (2015.05.31) SATRip скачать через торрент бесплатно
  • Мистер и Миссис СМИ. Выпуск 2 (2015.06.07) SATRip скачать через торрент бесплатно
  • Мистер и Миссис СМИ. Выпуск 3 (2015.06.14) SATRip скачать через торрент бесплатно
  • Мистер и миссис Смит / Mr. & Mrs. Smith (2005) BDRip [H.264 / 1080p] [Directors Cut] скачать через торрент бесплатно
  • Мистер и Миссис СМИ. Выпуск 4 (2015.06.21) SATRip скачать через торрент бесплатно
  • Мистер и миссис Смит / Mr. & Mrs. Smith [Directors Cut] (2005) BDRip [H.264 / 1080p-LQ] скачать через торрент бесплатно
  • Мистер и миссис Смит / Mr. & Mrs. Smith (2005) BDRip [H.265 / 1080p-LQ]
  • Мистер и миссис Смит / Mr. & Mrs. Smith (2005) BDRip [H.265 / 1080p-LQ] [10-bit]


  • Информация
    Посетители, находящиеся в группе Гости, не могут оставлять комментарии в данной новости.
    Главная страница | Регистрация | Добавить новость | Новое на сайте Copyright © 2019. bolt.mmix.club All Rights Reserved