Подписывайся на наш канал в Telegram https://t.me/torrentok и получи доступ к торрентам без ограничений!
. bolt.mmix.club
Авторские права
con...@...Показать
Вход на сайт
Логин:
Пароль:
 
Навигация по сайту
Популярные статьи

Торрент трекер | Скачать торрент | Скачать через Торрент | Скачать торрент бесплатно | Скачать торрент без регистрации Фильмы торрент скачать Макс Уинслоу и дом тайн / Max Winslow and the House of Secrets (2019) WEB-DLRip [MVO] торрент скачать бесплатно

Макс Уинслоу и дом тайн / Max Winslow and the House of Secrets (2019) WEB-DLRip [MVO] торрент скачать бесплатно

Фильмы торрент скачать
Макс Уинслоу и дом тайн / Max Winslow and the House of Secrets (2019) WEB-DLRip [MVO]Производство: США/Skipstone Pictures, Standing Room Only Cinema
Жанр: Фантастика
Режиссер: Шон Олсон
Продюсер: Robert Babcock, Джейсон Брандт, Joe Donaldson

Актеры
Чад Майкл Мюррэй, Тэннер Бьюкэнэн, Марина Сиртис, Джейсон Дженао, Джейд Чайновет, Тайлер Кристофер, Эмери Келли, Сидни Микелле, Кристофер Майкл, Антон Старкман

Описание

Пять подростков собрались вместе, чтобы побороться за особняк эксцентричного миллиардера, но ночь принимает ужасающий оборот, когда они попадают в ловушку суперкомпьютера, решившего поиграть в бога.


Рейтинг MPAA: PG (рекомендуется присутствие родителей)
Дата мировой премьеры: 7 Октября 2020
Релиз от : MediaBit
Продолжительность: 01: 37: 45
Качество видео: WEB-DLRip
Перевод: Многоголосый любительский (СИНЕМА УС)
Субтитры: Отсутствуют
Видео: Xvid, 720x304, 1827 kbps
Аудио: AC3, 2 ch, 256 Kbps - Русский (MVO)
Общее
Полное имя : Max.Uinslou.i.dom.tayn.2019.XviD.WEB-DLRip-MediaBit.avi
Формат : AVI
Формат/Информация : Audio Video Interleave
Профиль формата : OpenDML
Размер файла : 1, 43 Гбайт
Продолжительность : 1 ч. 37 м.
Общий поток : 2 095 Кбит/сек
Название фильма : Max Winslow and the House of Secrets (2019)
Программа кодирования : Lavf58.20.100
Видео
Идентификатор : 0
Формат : MPEG-4 Visual
Профиль формата : Advanced Simple@L5
Настройки формата : BVOP1/Custom Matrix
Параметр BVOP формата : 1
Параметр QPel формата : Нет
Параметр GMC формата : Без точки перехода
Параметр матрицы формата : Выборочная
Идентификатор кодека : XVID
Идентификатор кодека/Подсказка : XviD
Продолжительность : 1 ч. 37 м.
Битрейт : 1 827 Кбит/сек
Ширина : 704 пикселя
Высота : 304 пикселя
Соотношение сторон : 2, 35: 1
Частота кадров : 23, 976 (24000/1001) кадра/сек
Цветовое пространство : YUV
Субдискретизация насыщенности : 4: 2: 0
Битовая глубина : 8 бит
Тип развёртки : Прогрессивная
Метод сжатия : С потерями
Бит/(Пиксели*Кадры) : 0.356
Размер потока : 1, 25 Гбайт (87%)
Заголовок : NTG
Библиотека кодирования : XviD 67
Аудио
Идентификатор : 1
Формат : AC-3
Формат/Информация : Audio Coding 3
Коммерческое название : Dolby Digital
Идентификатор кодека : 2000
Продолжительность : 1 ч. 37 м.
Вид битрейта : Постоянный
Битрейт : 256 Кбит/сек
Каналы : 2 канала
Channel layout : L R
Частота : 48, 0 КГц
Частота кадров : 31, 250 кадров/сек (1536 SPF)
Битовая глубина : 16 бит
Метод сжатия : С потерями
Размер потока : 179 Мбайт (12%)
Выравнивание : Соединение по промежуткам
Продолжительность промежутка : 32 мс. (0, 77 видеокадр)
Заголовок : MVO Синема РЈРЎ MediaBit
Service kind : Complete Main

Скриншоты для ознакомления



Все одноименные релизы в Клубе
Время раздачи: 24/7 (мультитрекерная раздача)
 
Уважаемый посетитель, Вы зашли на сайт как незарегистрированный пользователь. Мы рекомендуем Вам зарегистрироваться либо зайти на сайт под своим именем.

Другие новости по теме:

  • Макс Уинслоу и дом тайн / Max Winslow and the House of Secrets (2019) WEB-DL [H.264 / 1080p-LQ] [MVO]


  • Информация
    Посетители, находящиеся в группе Гости, не могут оставлять комментарии в данной новости.
    Главная страница | Регистрация | Добавить новость | Новое на сайте Copyright © 2019. bolt.mmix.club All Rights Reserved