Подписывайся на наш канал в Telegram https://t.me/torrentok и получи доступ к торрентам без ограничений!
. bolt.mmix.club
Авторские права
con...@...Показать
Вход на сайт
Логин:
Пароль:
 
Навигация по сайту
Популярные статьи

Торрент трекер | Скачать торрент | Скачать через Торрент | Скачать торрент бесплатно | Скачать торрент без регистрации Фильмы торрент скачать Преследование / Bumperkleef (2019) BDRip [H.264 / 1080p] торрент скачать бесплатно

Преследование / Bumperkleef (2019) BDRip [H.264 / 1080p] торрент скачать бесплатно

Фильмы торрент скачать
Преследование / Bumperkleef (2019) BDRip [H.264 / 1080p]Производство: Нидерланды/Topkapi Films, AVROTROS, Savage Film
Жанр: Ужасы, Триллер
Режиссер: Лодевейк Крейнс
Продюсер: Арнольд Хесленфельд, Лоретт Шиллингс, Франс ван Гестель

Актеры
Ерун Шпиценбергер, Анник Фейфер, Розмарин ван дер Хук, Лиз Вергер, Вилем де Вольф, Труус те Селле, Хьюберт Фермин, Тим Линде, Питер Бланкенстейн, Стэйси Матла

Описание

Молодая семья отправляется в путешествие на автомобиле. Уверенный в себе отец семейства совершает опасный маневр, подгоняя нерасторопного водителя минивэна. Однако такая дерзость не остается безнаказанной, и минивэн начинает преследование обидчика. Никто не мог представить, что эта поездка для всей семьи превратится в настоящую борьбу за жизнь.


Возраст: 16+ (зрителям, достигшим 16 лет)
Дата мировой премьеры: 30 сентября 2019
Цифровой релиз: 7 мая 2020, Вольга
Релиз от: selezen
Продолжительность: 01: 25: 19
Качество видео: BDRip
Перевод: Дублированный
Субтитры: Русские (Full), Английские (Full)
Видео: AVC/H.264, 1920x804, ~9797 kbps
Аудио 1: AC3, 6 ch, 384 Kbps - Русский
Аудио 2: AC3, 6 ch, 640 Kbps - Немецкий
Аудио 3: DTS, 6 ch, 1509 Kbps - Немецкий
General
Unique ID : 330219239213300802642851148660096094808 (0xF86DE97F79A4EF3D5E0D5AA50E1BD258)
Complete name : D: Video111Bumperkleef.2019.BDRip.1080p.seleZen.mkv
Format : Matroska
Format version : Version 4
File size : 7.35 GiB
Duration : 1 h 25 min
Overall bit rate : 12.3 Mb/s
Movie name : Bumperkleef 2019 from селезень
Encoded date : UTC 2020-08-27 02: 55: 32
Writing application : mkvmerge v40.0.0 (\'Old Town Road + Pony\') 64-bit
Writing library : libebml v1.3.9 + libmatroska v1.5.2
Video
ID : 1
Format : AVC
Format/Info : Advanced Video Codec
Format profile : High@L4.1
Format settings : CABAC/5 Ref Frames
Format settings, CABAC : Yes
Format settings, Reference : 5 frames
Codec ID : V_MPEG4/ISO/AVC
Duration : 1 h 25 min
Bit rate : 9 797 kb/s
Width : 1 920 pixels
Height : 804 pixels
Display aspect ratio : 2.40: 1
Frame rate mode : Constant
Frame rate : 24.000 FPS
Color space : YUV
Chroma subsampling : 4: 2: 0
Bit depth : 8 bits
Scan type : Progressive
Bits/(Pixel*Frame) : 0.264
Stream size : 5.84 GiB (79%)
Writing library : x264 core 157 r2969 d4099dd
Encoding settings : cabac=1/ref=5/deblock=1: -2: -2/analyse=0x3: 0x113/me=umh/subme=10/psy=1/psy_rd=1.00: 0.00/mixed_ref=1/me_range=32/chroma_me=1/trellis=2/8x8dct=1/cqm=0/deadzone=21, 11/fast_pskip=0/chroma_qp_offset=-2/threads=24/lookahead_threads=4/sliced_threads=0/nr=0/decimate=0/interlaced=0/bluray_compat=0/constrained_intra=0/bframes=9/b_pyramid=2/b_adapt=2/b_bias=0/direct=3/weightb=1/open_gop=0/weightp=2/keyint=230/keyint_min=23/scenecut=40/intra_refresh=0/rc_lookahead=40/rc=crf/mbtree=0/crf=16.8/qcomp=0.60/qpmin=0/qpmax=51/qpstep=4/vbv_maxrate=50000/vbv_bufsize=62000/crf_max=0.0/nal_hrd=none/filler=0/ip_ratio=1.40/pb_ratio=1.30/aq=3: 0.80
Language : German
Default : Yes
Forced : No
Audio #1
ID : 2
Format : AC-3
Format/Info : Audio Coding 3
Commercial name : Dolby Digital
Codec ID : A_AC3
Duration : 1 h 25 min
Bit rate mode : Constant
Bit rate : 384 kb/s
Channel(s) : 6 channels
Channel layout : L R C LFE Ls Rs
Sampling rate : 48.0 kHz
Frame rate : 31.250 FPS (1536 SPF)
Compression mode : Lossy
Stream size : 234 MiB (3%)
Title : iTunes
Language : Russian
Service kind : Complete Main
Default : Yes
Forced : Yes
Audio #2
ID : 3
Format : AC-3
Format/Info : Audio Coding 3
Commercial name : Dolby Digital
Codec ID : A_AC3
Duration : 1 h 25 min
Bit rate mode : Constant
Bit rate : 640 kb/s
Channel(s) : 6 channels
Channel layout : L R C LFE Ls Rs
Sampling rate : 48.0 kHz
Frame rate : 31.250 FPS (1536 SPF)
Compression mode : Lossy
Stream size : 391 MiB (5%)
Title : Original
Language : German
Service kind : Complete Main
Default : No
Forced : No
Audio #3
ID : 4
Format : DTS
Format/Info : Digital Theater Systems
Codec ID : A_DTS
Duration : 1 h 25 min
Bit rate mode : Constant
Bit rate : 1 509 kb/s
Channel(s) : 6 channels
Channel layout : C L R Ls Rs LFE
Sampling rate : 48.0 kHz
Frame rate : 93.750 FPS (512 SPF)
Bit depth : 24 bits
Compression mode : Lossy
Stream size : 921 MiB (12%)
Title : Original
Language : German
Default : No
Forced : No
Text #1
ID : 5
Format : UTF-8
Codec ID : S_TEXT/UTF8
Codec ID/Info : UTF-8 Plain Text
Duration : 1 h 18 min
Bit rate : 68 b/s
Count of elements : 1219
Stream size : 39.6 KiB (0%)
Title : Full
Language : Russian
Default : No
Forced : No
Text #2
ID : 6
Format : UTF-8
Codec ID : S_TEXT/UTF8
Codec ID/Info : UTF-8 Plain Text
Duration : 1 h 18 min
Bit rate : 37 b/s
Count of elements : 702
Stream size : 21.7 KiB (0%)
Title : Full
Language : English
Default : No
Forced : No
Menu
00: 00: 00.000 : de: Глава 01
00: 10: 21.000 : de: Глава 02
00: 19: 33.000 : de: Глава 03
00: 30: 24.000 : de: Глава 04
00: 41: 19.000 : de: Глава 05
00: 52: 08.000 : de: Глава 06
01: 01: 40.000 : de: Глава 07
01: 13: 35.000 : de: Глава 08
01: 21: 02.000 : de: Глава 09

Скриншоты для ознакомления



Все одноименные релизы в Клубе
Время раздачи: 24/7 (мультитрекер)
 
Уважаемый посетитель, Вы зашли на сайт как незарегистрированный пользователь. Мы рекомендуем Вам зарегистрироваться либо зайти на сайт под своим именем.

Другие новости по теме:

  • Преследование / Bumperkleef (2019) BDRemux [H.264 / 1080p]
  • Преследование / Bumperkleef (2019) WEB-DLRip [MVO] [AD]
  • Преследование / Bumperkleef (2019) WEB-DLRip [H.264 / 1080p-LQ] [MVO] [AD]
  • Преследование / Bumperkleef / Tailgate (2019) WEB-DLRip
  • Преследование / Bumperkleef / Tailgate (2019) WEB-DL [H.264 / 1080p-LQ]
  • Преследование / Bumperkleef (2019) WEB-DL [H.264 / 720p-LQ]


  • Информация
    Посетители, находящиеся в группе Гости, не могут оставлять комментарии в данной новости.
    Главная страница | Регистрация | Добавить новость | Новое на сайте Copyright © 2019. bolt.mmix.club All Rights Reserved