Подписывайся на наш канал в Telegram https://t.me/torrentok и получи доступ к торрентам без ограничений!
. bolt.mmix.club
Авторские права
con...@...Показать
Вход на сайт
Логин:
Пароль:
 
Навигация по сайту
Популярные статьи

Торрент трекер | Скачать торрент | Скачать через Торрент | Скачать торрент бесплатно | Скачать торрент без регистрации Фильмы торрент скачать Седьмая руна (2014) WEB-DLRip [H.264 / 720p-LQ] (серии 1-8 из 8) торрент скачать бесплатно

Седьмая руна (2014) WEB-DLRip [H.264 / 720p-LQ] (серии 1-8 из 8) торрент скачать бесплатно

Фильмы торрент скачать
Седьмая руна (2014) WEB-DLRip [H.264 / 720p-LQ] (серии 1-8 из 8)Производство: Россия/Марс Медиа
Жанр: триллер, приключения, детектив
Режиссер: Сергей Попов

Актеры
Юрий Колокольников, Юлия Снигирь, Дмитрий Куличков, Виктор Сухоруков, Дмитрий Ульянов, Роман Мадянов, Юрий Цурило, Мария Сокова, Константин Чепурин, Дарья Екамасова и др.

Описание

В городе Н-ск при загадочных обстоятельствах погибает дочь губернатора. Для выяснения обстоятельств её смерти в город Н-ск из Москвы приезжает следователь Олег Нестеров. В том месте, где нашли тело девушки, проходила ролевая игра по карело-финскому эпосу Калевала, и председатель ролевиков Вера параллельно начинает свое расследование. Однако новые жертвы и серия загадочных событий все больше запутывают Олега и Веру. А вскоре Нестеров понимает, что в Н-ске играют не только ролевики. И банкир, и прокурор, и губернатор вовлечены в некую странную азартную игру, смысл которой скрыт от непосвященных.


Возраст: 16+ (зрителям, достигшим 16 лет)
Продолжительность: ~00: 50: 00 серия
Качество видео: WEB-DLRip
Видео: AVC/H.264, 1280x720 (16: 9), ~2560 Kbps
Аудио: AC3, 2 ch, 256 Kbps
Общее
Уникальный идентификатор : 146599334477768242833559924333597943682 (0x6E4A013B3702864B369EE15BE4D7E782)
Полное имя : D: Седьмая руна (2014).by.AlexandrСедьмая руна. Серия 01.by.Alexandr.mkv
Формат : Matroska
Версия формата : Version 4
Размер файла : 967 Мбайт
Продолжительность : 48 м. 4 с.
Общий поток : 2 813 Кбит/сек
Дата кодирования : UTC 2020-08-27 07: 23: 53
Программа кодирования : mkvmerge v26.0.0 (\'In The Game\') 32-bit
Библиотека кодирования : libebml v1.3.6 + libmatroska v1.4.9/Lavf57.71.100
Видео
Идентификатор : 1
Формат : AVC
Формат/Информация : Advanced Video Codec
Профиль формата : High@L3.1
Настройки формата : CABAC/5 Ref Frames
Параметр CABAC формата : Да
Параметр RefFrames формата : 5 кадров
Идентификатор кодека : V_MPEG4/ISO/AVC
Продолжительность : 48 м. 3 с.
Битрейт : 2 556 Кбит/сек
Номинальный битрейт : 3 000 Кбит/сек
Ширина : 1 280 пикселей
Высота : 720 пикселей
Соотношение сторон : 16: 9
Режим частоты кадров : Постоянный
Частота кадров : 25, 000 кадров/сек
Цветовое пространство : YUV
Субдискретизация насыщенности : 4: 2: 0
Битовая глубина : 8 бит
Тип развёртки : Прогрессивная
Бит/(Пиксели*Кадры) : 0.111
Размер потока : 879 Мбайт (91%)
Библиотека кодирования : x264 core 148 r2721 72d53ab
Настройки программы : cabac=1/ref=5/deblock=1: 0: 0/analyse=0x3: 0x133/me=umh/subme=10/psy=1/psy_rd=1.00: 0.00/mixed_ref=1/me_range=24/chroma_me=1/trellis=2/8x8dct=1/cqm=0/deadzone=21, 11/fast_pskip=1/chroma_qp_offset=-2/threads=22/lookahead_threads=3/sliced_threads=0/nr=0/decimate=1/interlaced=0/bluray_compat=0/constrained_intra=0/bframes=8/b_pyramid=2/b_adapt=2/b_bias=0/direct=3/weightb=1/open_gop=0/weightp=2/keyint=100/keyint_min=50/scenecut=40/intra_refresh=0/rc_lookahead=60/rc=2pass/mbtree=1/bitrate=3000/ratetol=1.0/qcomp=0.60/qpmin=0/qpmax=69/qpstep=4/cplxblur=20.0/qblur=0.5/vbv_maxrate=3300/vbv_bufsize=560/nal_hrd=none/filler=0/ip_ratio=1.40/aq=1: 1.00
Default : Да
Forced : Нет
Аудио
Идентификатор : 2
Формат : AC-3
Формат/Информация : Audio Coding 3
Коммерческое название : Dolby Digital
Идентификатор кодека : A_AC3
Продолжительность : 48 м. 4 с.
Вид битрейта : Постоянный
Битрейт : 256 Кбит/сек
Каналы : 2 канала
Channel layout : L R
Частота : 48, 0 КГц
Частота кадров : 31, 250 кадров/сек (1536 SPF)
Метод сжатия : С потерями
Задержка видео : -80 мс.
Размер потока : 88, 0 Мбайт (9%)
Service kind : Complete Main
Default : Да
Forced : Нет

Скриншоты для ознакомления



Все одноименные релизы в Клубе
Время раздачи: 24/7 (круглосуточно) (до появления первых 3-5 скачавших)
 
Уважаемый посетитель, Вы зашли на сайт как незарегистрированный пользователь. Мы рекомендуем Вам зарегистрироваться либо зайти на сайт под своим именем.

Другие новости по теме:

  • Седьмая руна (2014) SATRip (сезон 1, серии 1-2 из 8) (обновляемая) скачать через торрент бесплатно
  • Седьмая руна (2014) SATRip [H.264] (серии 1-2 из 8) (обновляемая) скачать через торрент бесплатно
  • Седьмая руна (2014) WEB-DL [H.264 / 1080p-LQ] (серии 1-8 из 8)
  • Седьмая руна (2014) WEB-DLRip (серии 1-8 из 8)


  • Информация
    Посетители, находящиеся в группе Гости, не могут оставлять комментарии в данной новости.
    Главная страница | Регистрация | Добавить новость | Новое на сайте Copyright © 2019. bolt.mmix.club All Rights Reserved