Подписывайся на наш канал в Telegram https://t.me/torrentok и получи доступ к торрентам без ограничений!
. bolt.mmix.club
Авторские права
con...@...Показать
Вход на сайт
Логин:
Пароль:
 
Навигация по сайту
Популярные статьи

Торрент трекер | Скачать торрент | Скачать через Торрент | Скачать торрент бесплатно | Скачать торрент без регистрации Фильмы торрент скачать Мари-Октябрь (Советская прокатная копия) / Marie-Octobre (1959) Screener [Dub] торрент скачать бесплатно

Мари-Октябрь (Советская прокатная копия) / Marie-Octobre (1959) Screener [Dub] торрент скачать бесплатно

Фильмы торрент скачать
Мари-Октябрь (Советская прокатная копия) / Marie-Octobre (1959) Screener [Dub]Производство: Франция, Abbey Films, Doxa Films, Orex Films, Societe Française du Theatre et Cinema
Жанр: Драма, детектив
Режиссер: Жюльен Дювивье
Продюсер: Люсьен Виард

Актеры
Даниэль Даррьё, Лино Вентура, Бернар Блие, Робер Дальбан, Поль Франкёр, Поль Гуер, Даниэль Ивернель, Поль Мерисс, Серж Реджани, Ноэль Роквер

Описание

Неизвестный предатель выдал нацистам участников французского Сопротивления. Уцелевшие члены группы собралась через 15 лет после окончания войны в доме Мари Дюмолен, чтобы разобраться, кто из них предатель. Эстафета подозрений передается от одного к другому, все оказываются припертыми к стенке, даже сама Мари-Октябрь не исключение. Восстанавливаются факты, слова, детали. Наконец останется один, круг сомкнулся.


Возраст: 16+ (зрителям, достигшим 16 лет)
Релиз от: Rip by vitolinform
Продолжительность: 01: 33: 58
Качество видео: Screener
Перевод: Дублированный (Киностудия им. М. Горького)
Субтитры: отсутствуют
Видео: Xvid, 688x432, ~1821 kbps
Аудио: AC3, 2 ch, 256 Кbps | Русский (Dub, (Киностудия им. М. Горького))
Общее
Полное имя : C: Marie-Octobre.1959.Screener.avi
Формат : AVI
Формат/Информация : Audio Video Interleave
Размер файла : 1, 37 Гбайт
Продолжительность : 1 ч. 33 м.
Общий поток : 2 086 Кбит/сек
Название фильма : Мари-Октябрь/Marie-Octobre (Советская прокатная копия) (1959) Screener
Режиссёр : Жюльен Дювивье/Julien Duvivier
Жанр : Драма, детектив
Программа кодирования : VirtualDubMod 1.5.10.2 (build 2542/release)
Формат оригинала/Имя : Художественный фильм
Авторское право : Франция, Abbey Films, Doxa Films, Orex Films, Societe Francaise du Theatre et Cinema
Примечание : Rip by vitolinform
Видео
Идентификатор : 0
Формат : MPEG-4 Visual
Профиль формата : Advanced Simple@L5
Настройки формата : BVOP1
Параметр BVOP формата : 1
Параметр QPel формата : Нет
Параметр GMC формата : Без точки перехода
Параметр матрицы формата : Default (MPEG)
Идентификатор кодека : XVID
Идентификатор кодека/Подсказка : XviD
Продолжительность : 1 ч. 33 м.
Битрейт : 1 821 Кбит/сек
Ширина : 688 пикселей
Высота : 432 пикселя
Соотношение сторон : 16: 10
Частота кадров : 25, 000 кадров/сек
Цветовое пространство : YUV
Субдискретизация насыщенности : 4: 2: 0
Битовая глубина : 8 бит
Тип развёртки : Прогрессивная
Метод сжатия : С потерями
Бит/(Пиксели*Кадры) : 0.245
Размер потока : 1, 20 Гбайт (87%)
Библиотека кодирования : XviD 67
Аудио
Идентификатор : 1
Формат : AC-3
Формат/Информация : Audio Coding 3
Коммерческое название : Dolby Digital
Идентификатор кодека : 2000
Продолжительность : 1 ч. 33 м.
Вид битрейта : Постоянный
Битрейт : 256 Кбит/сек
Каналы : 2 канала
Channel layout : L R
Частота : 48, 0 КГц
Частота кадров : 31, 250 кадров/сек (1536 SPF)
Метод сжатия : С потерями
Размер потока : 172 Мбайт (12%)
Выравнивание : Разделение по промежуткам
Продолжительность промежутка : 40 мс. (1, 00 видеокадр)
Время предзагрузки промежутка : 500 мс.
Заголовок : Russian (Dub Киностудия им. М. Горького)
Service kind : Complete Main

Скриншоты для ознакомления



Все одноименные релизы в Клубе
Время раздачи: 24/7 (мультитрекерная раздача) (до появления первых 3-5 скачавших)
 
Уважаемый посетитель, Вы зашли на сайт как незарегистрированный пользователь. Мы рекомендуем Вам зарегистрироваться либо зайти на сайт под своим именем.

Другие новости по теме:



Информация
Посетители, находящиеся в группе Гости, не могут оставлять комментарии в данной новости.
Главная страница | Регистрация | Добавить новость | Новое на сайте Copyright © 2019. bolt.mmix.club All Rights Reserved