Подписывайся на наш канал в Telegram https://t.me/torrentok и получи доступ к торрентам без ограничений!
. bolt.mmix.club
Авторские права
con...@...Показать
Вход на сайт
Логин:
Пароль:
 
Навигация по сайту
Популярные статьи

Торрент трекер | Скачать торрент | Скачать через Торрент | Скачать торрент бесплатно | Скачать торрент без регистрации Фильмы торрент скачать Кокаин / Blow (2001) DVD9 [Custom] торрент скачать бесплатно

Кокаин / Blow (2001) DVD9 [Custom] торрент скачать бесплатно

Фильмы торрент скачать
Кокаин / Blow (2001) DVD9 [Custom]Производство: США, Мексика/New Line Cinema, Spanky Pictures, Apostle
Жанр: Драма, криминал, биография
Режиссер: Тед Демме
Продюсер: Тед Демме, Томаш Крейчи, Дэнис Лири

Актеры
Джонни Депп, Пенелопа Крус, Франка Потенте, Рэйчел Гриффитс, Пол Рубенс, Хорди Молья, Клифф Кёртис, Мигель Сандовал, Итан Сапли, Рэй Лиотта

Описание

Джордж Джанг, обыкновенный парень из пригорода, решил осуществить американскую мечту своим способом - стать первым американцем, импортирующим кокаин в больших объемах. Он создал себе рынок сбыта, подсадив на кокаин самых знаменитых людей Америки. Вскоре он уже купался в деньгах и роскоши, о которых многие только мечтают. Ему удавалось обводить вокруг пальца не только ФБР, но и страшных колумбийских наркодельцов. Однако настоящий кайф он получал от опасности и риска, нуждаясь в адреналине больше чем в наркотиках.


Возраст: 16+ (зрителям, достигшим 16 лет)
Рейтинг MPAA: R (лицам до 17 лет обязательно присутствие взрослого)

Релиз от: Bearn
Продолжительность: 02: 03: 19
Качество видео: DVD9 BD - DVD
Перевод: Дублированный, профессиональный многоголосый
Субтитры: Русские, английские
Доп. материалы: Отсутствуют
Видео: MPEG-2, 720x480@853x480 (NTSC 16: 9), ~6800 Kbps
Аудио 1: DTS 5.1, 755 Kbps (Русский, многоголосый)
Аудио 2: AC3 5.1, 448 Kbps (Английский - оригинал)
Аудио 3: AC3 5.1, 448 Kbps (Русский - многоголосый)
Аудио 4: AC3 2.0, 192 Kbps (Русский - дублированный)Title: Blow
Size: 7.46 Gb ( 7 823 516, 00 KBytes ) - DVD-9
Enabled regions: 1, 2, 3, 4, 5, 6, 7, 8
VTS_01 :
Play Length: 02: 03: 19+00: 00: 07
Video: NTSC 16: 9 (720x480) VBR, Auto Letterboxed
Audio:
Russian, DTS, 3/2 (L, C, R, SL, SR), 768 kbps, Delay 0 mSec
English, AC3, 3/2 (L, C, R, SL, SR)+LFE ch, 448 kbps, Delay 0 mSec
Russian, AC3, 3/2 (L, C, R, SL, SR)+LFE ch, 448 kbps, Delay 0 mSec
Russian, AC3, 2/0 (L, R) ch, 192 kbps, Delay 0 mSec
Subtitles:
Russian
English
Общее
Полное имя : D: TorrentsBlowVIDEO_TSVTS_01_2.VOB
Формат : MPEG-PS
Размер файла : 1 000 Мбайт
Продолжительность : 15 м. 50 с.
Режим общего битрейта : Переменный
Общий поток : 8 826 Кбит/сек
Видео
Идентификатор : 224 (0xE0)
Формат : MPEG Video
Версия формата : Version 2
Профиль формата : Main@Main
Настройки формата : CustomMatrix/BVOP
Параметр BVOP формата : Да
Параметр матрицы формата : Выборочная
Параметр GOP формата : Variable
Продолжительность : 15 м. 50 с.
Вид битрейта : Переменный
Битрейт : 6 808 Кбит/сек
Максимальный битрейт : 9 800 Кбит/сек
Ширина : 720 пикселей
Высота : 480 пикселей
Соотношение сторон : 16: 9
Частота кадров : 23, 976 (24000/1001) кадра/сек
Цветовое пространство : YUV
Субдискретизация насыщенности : 4: 2: 0
Битовая глубина : 8 бит
Тип развёртки : Прогрессивная
Порядок развёртки : 2: 3 Pulldown
Метод сжатия : С потерями
Бит/(Пиксели*Кадры) : 0.822
Временной код первого кадра : 01: 16: 52: 03
Оригинал временного кода : Group of pictures t_head
GOP, открыто/закрыто : Открыто
Размер потока : 771 Мбайт (77%)
Аудио #1
Идентификатор : 189 (0xBD)-129 (0x81)
Формат : AC-3
Формат/Информация : Audio Coding 3
Коммерческое название : Dolby Digital
Режим смешивания : DVD-Video
Продолжительность : 15 м. 50 с.
Вид битрейта : Постоянный
Битрейт : 448 Кбит/сек
Каналы : 6 каналов
Channel layout : L R C LFE Ls Rs
Частота : 48, 0 КГц
Частота кадров : 31, 250 кадров/сек (1536 SPF)
Метод сжатия : С потерями
Задержка видео : -252 мс.
Размер потока : 50, 8 Мбайт (5%)
Service kind : Complete Main
Аудио #2
Идентификатор : 189 (0xBD)-130 (0x82)
Формат : AC-3
Формат/Информация : Audio Coding 3
Коммерческое название : Dolby Digital
Режим смешивания : DVD-Video
Продолжительность : 15 м. 50 с.
Вид битрейта : Постоянный
Битрейт : 448 Кбит/сек
Каналы : 6 каналов
Channel layout : L R C LFE Ls Rs
Частота : 48, 0 КГц
Частота кадров : 31, 250 кадров/сек (1536 SPF)
Метод сжатия : С потерями
Задержка видео : -252 мс.
Размер потока : 50, 8 Мбайт (5%)
Service kind : Complete Main
Аудио #3
Идентификатор : 189 (0xBD)-131 (0x83)
Формат : AC-3
Формат/Информация : Audio Coding 3
Коммерческое название : Dolby Digital
Режим смешивания : DVD-Video
Продолжительность : 15 м. 50 с.
Вид битрейта : Постоянный
Битрейт : 192 Кбит/сек
Каналы : 2 канала
Channel layout : L R
Частота : 48, 0 КГц
Частота кадров : 31, 250 кадров/сек (1536 SPF)
Метод сжатия : С потерями
Задержка видео : -252 мс.
Размер потока : 21, 8 Мбайт (2%)
Service kind : Complete Main
Аудио #4
Идентификатор : 189 (0xBD)-136 (0x88)
Формат : DTS
Формат/Информация : Digital Theater Systems
Режим смешивания : DVD-Video
Продолжительность : 15 м. 50 с.
Вид битрейта : Постоянный
Битрейт : 755 Кбит/сек
Каналы : 6 каналов
Channel layout : C L R Ls Rs LFE
Частота : 48, 0 КГц
Частота кадров : 93, 750 кадра/сек (512 SPF)
Битовая глубина : 24 бит
Метод сжатия : С потерями
Задержка видео : -284 мс.
Размер потока : 85, 5 Мбайт (9%)
Текст #1
Идентификатор : 189 (0xBD)-32 (0x20)
Формат : RLE
Формат/Информация : Run-length encoding
Режим смешивания : DVD-Video
Задержка видео : 1 с. 34 мс.
Текст #2
Идентификатор : 189 (0xBD)-33 (0x21)
Формат : RLE
Формат/Информация : Run-length encoding
Режим смешивания : DVD-Video
Задержка видео : 33 мс.
Меню
 
Уважаемый посетитель, Вы зашли на сайт как незарегистрированный пользователь. Мы рекомендуем Вам зарегистрироваться либо зайти на сайт под своим именем.

Другие новости по теме:

  • Кокаин / Blow (2001) BDRip [720p]
  • Кокаин / Blow (2001) BDRip [H.265 / 1080p] [10-bit]


  • Информация
    Посетители, находящиеся в группе Гости, не могут оставлять комментарии в данной новости.
    Главная страница | Регистрация | Добавить новость | Новое на сайте Copyright © 2019. bolt.mmix.club All Rights Reserved