Подписывайся на наш канал в Telegram https://t.me/torrentok и получи доступ к торрентам без ограничений!
. bolt.mmix.club
Авторские права
con...@...Показать
Вход на сайт
Логин:
Пароль:
 
Навигация по сайту
Популярные статьи

Торрент трекер | Скачать торрент | Скачать через Торрент | Скачать торрент бесплатно | Скачать торрент без регистрации Фильмы торрент скачать Близкие контакты / Proximity (2020) BDRemux [H.264 / 1080p] торрент скачать бесплатно

Близкие контакты / Proximity (2020) BDRemux [H.264 / 1080p] торрент скачать бесплатно

Фильмы торрент скачать
Близкие контакты / Proximity (2020) BDRemux [H.264 / 1080p]Производство: США/Demeusy Pictures, Shout!Studios, Instrum International
Жанр: Фантастика, драма
Режиссер: Эрик Демьюзи
Продюсер: Эрик Демьюзи, Andrea Dondanville, Кайл Макинтайр

Актеры
Раян Мэссон, Хайди Куан, Кристиан Прентис, Шоу Джонс, Дон Скрибнер, Номи Абади, Дэвид Баумгарднер, Энтони Брэдфорд, Джозеф Баттлер, Йен Коулмэн

Описание
Молодого ученого из НАСА похищают инопланетяне. Когда он возвращается, ему никто не верит. Стремясь доказать правду, ученый отправляется в путь, полный неожиданных открытий.


Дата мировой премьеры: 15 мая 2020
Релиз от: TeamHD
Продолжительность: 01: 59: 24
Качество видео: BDRemux 1080p
Перевод: Профессиональный (многоголосый закадровый)(iTunes)
Субтитры: Русские (Forced, Full), Английские (Full, SDH)
Видео: AVC/H.264, 1920x1080, 36.0 Mbps, 23.976 fps
Аудио 1 : AC-3, 6 ch, 384 Kbps | Русский
Аудио 2 : DTS-HD MA, 6 ch, 2652 Kbps | Английский
General
Unique ID : 43160447466918574696563968939184098471 (0x2078665A89347A709ACC4DCEC50C0CA7)
Complete name : /Volumes/Promise Pegasus/Proximity.BDRemux.1080p.mkv
Format : Matroska
Format version : Version 4
File size : 31.3 GiB
Duration : 1 h 59 min
Overall bit rate mode : Variable
Overall bit rate : 37.5 Mb/s
Movie name : Proximity BDRemux 1080p
Encoded date : UTC 2020-08-26 23: 10: 34
Writing application : mkvmerge v49.0.0 (\'Sick Of Losing Soulmates\') 64-bit
Writing library : libebml v1.4.0 + libmatroska v1.6.1
Video
ID : 1
Format : AVC
Format/Info : Advanced Video Codec
Format profile : High@L4.1
Format settings : CABAC/4 Ref Frames
Format settings, CABAC : Yes
Format settings, Reference frames : 4 frames
Format settings, GOP : M=3, N=12
Codec ID : V_MPEG4/ISO/AVC
Duration : 1 h 59 min
Bit rate mode : Constant
Bit rate : 36.0 Mb/s
Width : 1 920 pixels
Height : 1 080 pixels
Display aspect ratio : 16: 9
Frame rate mode : Constant
Frame rate : 23.976 (24000/1001) FPS
Color space : YUV
Chroma subsampling : 4: 2: 0
Bit depth : 8 bits
Scan type : Progressive
Bits/(Pixel*Frame) : 0.724
Stream size : 28.7 GiB (92%)
Language : English
Default : Yes
Forced : No
Audio #1
ID : 2
Format : AC-3
Format/Info : Audio Coding 3
Commercial name : Dolby Digital
Codec ID : A_AC3
Duration : 1 h 59 min
Bit rate mode : Constant
Bit rate : 384 kb/s
Channel(s) : 6 channels
Channel layout : L R C LFE Ls Rs
Sampling rate : 48.0 kHz
Frame rate : 31.250 FPS (1536 SPF)
Compression mode : Lossy
Stream size : 328 MiB (1%)
Title : Russian MVO iTunes
Language : Russian
Service kind : Complete Main
Default : Yes
Forced : No
Audio #2
ID : 3
Format : DTS XLL
Format/Info : Digital Theater Systems
Commercial name : DTS-HD Master Audio
Codec ID : A_DTS
Duration : 1 h 59 min
Bit rate mode : Variable
Bit rate : 2 652 kb/s
Channel(s) : 6 channels
Channel layout : C L R Ls Rs LFE
Sampling rate : 48.0 kHz
Frame rate : 93.750 FPS (512 SPF)
Bit depth : 24 bits
Compression mode : Lossless
Stream size : 2.21 GiB (7%)
Title : English Original
Language : English
Default : No
Forced : No
Text #1
ID : 4
Format : UTF-8
Codec ID : S_TEXT/UTF8
Codec ID/Info : UTF-8 Plain Text
Duration : 1 h 55 min
Bit rate : 2 b/s
Count of elements : 42
Stream size : 2.49 KiB (0%)
Title : Russian forced
Language : Russian
Default : Yes
Forced : No
Text #2
ID : 5
Format : UTF-8
Codec ID : S_TEXT/UTF8
Codec ID/Info : UTF-8 Plain Text
Duration : 1 h 56 min
Bit rate : 81 b/s
Count of elements : 1433
Stream size : 69.2 KiB (0%)
Title : Russian full
Language : Russian
Default : No
Forced : No
Text #3
ID : 6
Format : UTF-8
Codec ID : S_TEXT/UTF8
Codec ID/Info : UTF-8 Plain Text
Duration : 1 h 56 min
Bit rate : 44 b/s
Count of elements : 1424
Stream size : 37.8 KiB (0%)
Title : English full
Language : English
Default : No
Forced : No
Text #4
ID : 7
Format : UTF-8
Codec ID : S_TEXT/UTF8
Codec ID/Info : UTF-8 Plain Text
Duration : 1 h 58 min
Bit rate : 51 b/s
Count of elements : 1724
Stream size : 45.0 KiB (0%)
Title : English SDH
Language : English
Default : No
Forced : No
Menu
00: 00: 00.000 : : Chapter 01
00: 09: 34.407 : : Chapter 02
00: 18: 51.964 : : Chapter 03
00: 28: 40.135 : : Chapter 04
00: 40: 51.491 : : Chapter 05
00: 47: 50.117 : : Chapter 06
01: 01: 11.126 : : Chapter 07
01: 16: 45.267 : : Chapter 08
01: 27: 28.243 : : Chapter 09
01: 35: 14.709 : : Chapter 10
01: 47: 26.106 : : Chapter 11
01: 56: 02.372 : : Chapter 12

Скриншоты для ознакомления



Все одноименные релизы в Клубе
Время раздачи: 24/7 (круглосуточно) (до появления первых 3-5 скачавших)
 
Уважаемый посетитель, Вы зашли на сайт как незарегистрированный пользователь. Мы рекомендуем Вам зарегистрироваться либо зайти на сайт под своим именем.

Другие новости по теме:

  • Discovery. Близкие контакты / Close encounters (2014-2015) HDTVRip [H.264 / 720p-LQ] [сезон 1-2, серии 1-21 из 30] [обновляемая] скачать через торрент бесплатно
  • Близкие контакты третьей степени / Close Encounters of the Third Kind (1977) BDRip [H.264]
  • Близкие контакты третьей степени / Close Encounters of the Third Kind (1977) UHD BDRemux [H.265 / 2160p] [4K, HDR, 10-bit]
  • Близкие контакты третьей степени / Close Encounters of the Third Kind (1977) BDRip [H.264 / 1080p]
  • Близкие контакты третьей степени / Close Encounters of the Third Kind (1977) BDRip [4K Remastered, Directors Cut]
  • Близкие контакты третьей степени / Close Encounters of the Third Kind (1977) BDRip [H.264 / 720p] [Directors Cut] [PR]


  • Информация
    Посетители, находящиеся в группе Гости, не могут оставлять комментарии в данной новости.
    Главная страница | Регистрация | Добавить новость | Новое на сайте Copyright © 2019. bolt.mmix.club All Rights Reserved