Подписывайся на наш канал в Telegram https://t.me/torrentok и получи доступ к торрентам без ограничений!
. bolt.mmix.club
Авторские права
con...@...Показать
Вход на сайт
Логин:
Пароль:
 
Навигация по сайту
Популярные статьи

Торрент трекер | Скачать торрент | Скачать через Торрент | Скачать торрент бесплатно | Скачать торрент без регистрации Фильмы торрент скачать Поезд в Пусан 2: Полуостров / Bando (Train to Busan 2) (2020) WEB-DLRip [H.264 / 1080p-LQ] [Line, AD] торрент скачать бесплатно

Поезд в Пусан 2: Полуостров / Bando (Train to Busan 2) (2020) WEB-DLRip [H.264 / 1080p-LQ] [Line, AD] торрент скачать бесплатно

Фильмы торрент скачать
Поезд в Пусан 2: Полуостров / Bando (Train to Busan 2) (2020) WEB-DLRip [H.264 / 1080p-LQ] [Line, AD]Производство: Корея Южная/Movic Comics, Next Entertainment World, RedPeter Film
Жанр: ужасы, боевик
Режиссер: Ён Сан-хо

Актеры
Кан Дон-вон, Ли Джон-хён, Ли Рэ, Квон Хэ-хё, Ким Мин-джэ, Ку Гё-хван, Ким До-юн, Ли Е-вон, Хван Ён-хи, Ким Чхоль-юн

Описание

Через четыре года после вспышки страшного вируса, распространение которого Южная Корея сдержать не смогла, то, что осталось от страны, находится в блокаде, а полчища зомби разгуливают по всему полуострову. Бывший военный в составе спецотряда отправляется в закрытую зону, чтобы отыскать припрятанные деньги, и теперь ему предстоит пробираться по жуткому миру, где помимо означенной угрозы опасность представляют и люди, устраивающие жестокие игры на выживание.


Возраст: 18+ (зрителям, достигшим 18 лет. запрещено для детей)
Дата мировой премьеры: 15 июля 2020
Дата российской премьеры: 20 августа 2020, ПРОвзгляд
Продолжительность: 01: 55: 44
Качество видео: WEB-DLRip
Перевод: Дублированный (Line)
Субтитры: Корейские (вшитые, не отключаемые)
Реклама: Присутствует баннер, звуковая реклама
Видео: AVC/H.264, 1920х804, ~7983 Kbps
Аудио: AC3, 2 ch, 192 Kbps - Русский (DUB)
Общее
Уникальный идентификатор : 202792416629352281574401033965608675603 (0x98906615AAC06A84A34EC9E26ED0A913)
Полное имя : Train to Busan 2.(2020).Line.WEB-DL.1080p.mkv
Формат : Matroska
Версия формата : Version 4
Размер файла : 6, 61 Гбайт
Продолжительность : 1 ч. 55 м.
Режим общего битрейта : Переменный
Общий поток : 8177 Кбит/сек
Название фильма : Rebuild release from Theseus
Дата кодирования : UTC 2020-08-26 13: 51: 27
Программа кодирования : mkvmerge v8.3.0 (\'Over the Horizon\') 64bit
Библиотека кодирования : libebml v1.3.1 + libmatroska v1.4.2
Видео
Идентификатор : 1
Формат : AVC/AVC
Формат/Информация : Advanced Video Codec
Профиль формата : High@L4.1/ High@L4
Настройки формата : CABAC/4 Ref Frames/CABAC/5 Ref Frames
Параметр CABAC формата : Да/Да
Параметр RefFrames формата : 4 кадра/5 кадров
Идентификатор кодека : V_MPEG4/ISO/AVC
Продолжительность : 1 ч. 55 м.
Вид битрейта : Переменный
Битрейт : 7983 Кбит/сек
Максимальный битрейт : 9000 Кбит/сек
Ширина : 1920 пикселей
Ширина оригинала : 1920 пикселей/1920 пикселей
Высота : 804 пикселя
Высота оригинала : 804 пикселя/804 пикселя
Соотношение сторон : 2, 40: 1
Режим частоты кадров : Постоянный
Частота кадров : 23, 976 (24000/1001) кадра/сек
Стандарт вещания : Component
Цветовое пространство : YUV
Субдискретизация насыщенности : 4: 2: 0/4: 2: 0
Битовая глубина : 8 бит/8 бит
Тип развёртки : Прогрессивная/Progressive
Бит/(Пиксели*Кадры) : 0.216
Размер потока : 6, 45 Гбайт (98%)
Default : Да
Forced : Нет
Цветовой диапазон : Limited
Основные цвета : BT.709
Характеристики трансфера : BT.709
Коэффициенты матрицы : BT.709
Аудио
Идентификатор : 2
Формат : AC-3
Формат/Информация : Audio Coding 3
Коммерческое название : Dolby Digital
Идентификатор кодека : A_AC3
Продолжительность : 1 ч. 55 м.
Вид битрейта : Постоянный
Битрейт : 192 Кбит/сек
Каналы : 2 канала
Channel layout : L R
Частота : 48, 0 КГц
Частота кадров : 31, 250 кадров/сек (1536 SPF)
Битовая глубина : 16 бит
Метод сжатия : С потерями
Размер потока : 159 Мбайт (2%)
Заголовок : DUB (Line)
Язык : Russian
ServiceKind/String : Complete Main
Default : Да
Forced : Нет

Скриншоты для ознакомления



Все одноименные релизы в Клубе
Время раздачи: 24/7 (мультитрекерная раздача)
 
Уважаемый посетитель, Вы зашли на сайт как незарегистрированный пользователь. Мы рекомендуем Вам зарегистрироваться либо зайти на сайт под своим именем.

Другие новости по теме:

  • Поезд в Пусан / Train to Busan / Busanhaeng (2016) WEBRip [H.264 / 720p-LQ]
  • Поезд в Пусан / Busanhaeng (2016) WEBRip [H.264 / 1080p-LQ]
  • Поезд в Пусан / Busanhaeng (2016) WEBRip
  • Поезд в Пусан / Busanhaeng (2016) WEBRip
  • Поезд в Пусан / Busanhaeng (2016) WEBRip [H.264 / 1080p-LQ]
  • Поезд в Пусан / Busanhaeng (2016) WEBRip [H.264 / 1080p-LQ] [Line]
  • Поезд в Пусан / Busanhaeng (2016) HDTVRip [Line]
  • Поезд в Пусан / Busanhaeng (2016) WEBRip [H.264] [MP4|1024x552]


  • Информация
    Посетители, находящиеся в группе Гости, не могут оставлять комментарии в данной новости.
    Главная страница | Регистрация | Добавить новость | Новое на сайте Copyright © 2019. bolt.mmix.club All Rights Reserved