Подписывайся на наш канал в Telegram https://t.me/torrentok и получи доступ к торрентам без ограничений!
. bolt.mmix.club
Авторские права
con...@...Показать
Вход на сайт
Логин:
Пароль:
 
Навигация по сайту
Популярные статьи

Торрент трекер | Скачать торрент | Скачать через Торрент | Скачать торрент бесплатно | Скачать торрент без регистрации Фильмы торрент скачать Поезд в Пусан 2: Полуостров / Bando (Train to Busan 2) (2020) WEB-DLRip [MVO] торрент скачать бесплатно

Поезд в Пусан 2: Полуостров / Bando (Train to Busan 2) (2020) WEB-DLRip [MVO] торрент скачать бесплатно

Фильмы торрент скачать
Поезд в Пусан 2: Полуостров / Bando (Train to Busan 2) (2020) WEB-DLRip [MVO]Производство: Корея Южная/Movic Comics, Next Entertainment World, RedPeter Film
Жанр: ужасы, боевик
Режиссер: Ён Сан-хо

Актеры
Кан Дон-вон, Ли Джон-хён, Ли Рэ, Квон Хэ-хё, Ким Мин-джэ, Ку Гё-хван, Ким До-юн, Ли Е-вон, Хван Ён-хи, Ким Чхоль-юн

Описание

Через четыре года после вспышки страшного вируса, распространение которого Южная Корея сдержать не смогла, то, что осталось от страны, находится в блокаде, а полчища зомби разгуливают по всему полуострову. Бывший военный в составе спецотряда отправляется в закрытую зону, чтобы отыскать припрятанные деньги, и теперь ему предстоит пробираться по жуткому миру, где помимо означенной угрозы опасность представляют и люди, устраивающие жестокие игры на выживание.


Возраст: 18+ (зрителям, достигшим 18 лет. запрещено для детей)
Дата мировой премьеры: 15 июля 2020
Дата российской премьеры: 20 августа 2020, ПРОвзгляд
Продолжительность: 01: 55: 50
Качество видео: WEB-DLRip
Перевод: Многоголосый любительский (Mallorn Studio)
Субтитры: Корейские (hardsub на английскую речь), русские (на надписи, полные) - внешние
Видео: Xvid, 720x304, 1410 kbps
Аудио: AC3, 6 ch, 384 Kbps - Русский (MVO)
Общее
Полное имя : Train.to.Busan.2.(2020).MVO.WEB-DLRip.avi
Формат : AVI
Формат/Информация : Audio Video Interleave
Размер файла : 1, 46 Гбайт
Продолжительность : 1 ч. 55 м.
Общий поток : 1805 Кбит/сек
Видео
Идентификатор : 0
Формат : MPEG-4 Visual
Профиль формата : Advanced Simple@L5
Настройки формата : BVOP1/Custom Matrix
Параметр BVOP формата : 1
Параметр QPel формата : Нет
Параметр GMC формата : Без точки перехода
Параметр матрицы формата : Выборочная
Идентификатор кодека : XVID
Идентификатор кодека/Подсказка : XviD
Продолжительность : 1 ч. 55 м.
Битрейт : 1410 Кбит/сек
Ширина : 720 пикселей
Высота : 304 пикселя
Соотношение сторон : 2, 35: 1
Частота кадров : 23, 976 (24000/1001) кадра/сек
Частота кадров в оригинале : 23, 976 (23976/1000) кадра/сек
Цветовое пространство : YUV
Субдискретизация насыщенности : 4: 2: 0
Битовая глубина : 8 бит
Тип развёртки : Прогрессивная
Метод сжатия : С потерями
Бит/(Пиксели*Кадры) : 0.269
Размер потока : 1, 14 Гбайт (78%)
Библиотека кодирования : XviD 69
Аудио
Идентификатор : 1
Формат : AC-3
Формат/Информация : Audio Coding 3
Коммерческое название : Dolby Digital
Идентификатор кодека : 2000
Продолжительность : 1 ч. 55 м.
Вид битрейта : Постоянный
Битрейт : 384 Кбит/сек
Каналы : 6 каналов
Channel layout : L R C LFE Ls Rs
Частота : 48, 0 КГц
Частота кадров : 31, 250 кадров/сек (1536 SPF)
Битовая глубина : 16 бит
Метод сжатия : С потерями
Размер потока : 318 Мбайт (21%)
Выравнивание : Соединение по промежуткам
Продолжительность промежутка : 32 мс. (0, 77 видеокадр)
ServiceKind/String : Complete Main

Скриншоты для ознакомления



Все одноименные релизы в Клубе
Время раздачи: 24/7 (мультитрекерная раздача)
 
Уважаемый посетитель, Вы зашли на сайт как незарегистрированный пользователь. Мы рекомендуем Вам зарегистрироваться либо зайти на сайт под своим именем.

Другие новости по теме:

  • Поезд в Пусан / Train to Busan / Busanhaeng (2016) WEBRip [H.264 / 720p-LQ]
  • Поезд в Пусан / Busanhaeng (2016) WEBRip [H.264 / 1080p-LQ]
  • Поезд в Пусан / Busanhaeng (2016) WEBRip
  • Поезд в Пусан / Busanhaeng (2016) WEBRip
  • Поезд в Пусан / Busanhaeng (2016) WEBRip [H.264 / 1080p-LQ]
  • Поезд в Пусан / Busanhaeng (2016) WEBRip [H.264 / 1080p-LQ] [Line]
  • Поезд в Пусан / Busanhaeng (2016) HDTVRip [Line]
  • Поезд в Пусан / Busanhaeng (2016) WEBRip [H.264] [MP4|1024x552]


  • Информация
    Посетители, находящиеся в группе Гости, не могут оставлять комментарии в данной новости.
    Главная страница | Регистрация | Добавить новость | Новое на сайте Copyright © 2019. bolt.mmix.club All Rights Reserved