Подписывайся на наш канал в Telegram https://t.me/torrentok и получи доступ к торрентам без ограничений!
. bolt.mmix.club
Авторские права
con...@...Показать
Вход на сайт
Логин:
Пароль:
 
Навигация по сайту
Популярные статьи

Торрент трекер | Скачать торрент | Скачать через Торрент | Скачать торрент бесплатно | Скачать торрент без регистрации Фильмы торрент скачать Близкие контакты / Proximity (2020) BDRip [H.264 / 1080p] торрент скачать бесплатно

Близкие контакты / Proximity (2020) BDRip [H.264 / 1080p] торрент скачать бесплатно

Фильмы торрент скачать
Близкие контакты / Proximity (2020) BDRip [H.264 / 1080p]Производство: США/Demeusy Pictures, Shout!Studios, Instrum International
Жанр: Фантастика, драма
Режиссер: Эрик Демьюзи
Продюсер: Эрик Демьюзи, Andrea Dondanville, Кайл Макинтайр

Актеры
Раян Мэссон, Хайди Куан, Кристиан Прентис, Шоу Джонс, Дон Скрибнер, Номи Абади, Дэвид Баумгарднер, Энтони Брэдфорд, Джозеф Баттлер, Йен Коулмэн

Описание
Молодого ученого из НАСА похищают инопланетяне. Когда он возвращается, ему никто не верит. Стремясь доказать правду, ученый отправляется в путь, полный неожиданных открытий.


Дата мировой премьеры: 15 мая 2020
Релиз от: NNMClub
Продолжительность: 01: 59: 24
Качество видео: BDRip 1080p
Перевод: Профессиональный (многоголосый закадровый)(iTunes)
Субтитры: Русские (Forced, Full), Английские (Full, SDH)
Видео: AVC/H.264, 1920x812, 8000 Kbps, 23.976 fps
Аудио 1 : AC-3, 6 ch, 384 Kbps | Русский
Аудио 2 : DTS, 6 ch, 1509 Kbps | Английский
General
Unique ID : 141702249851297004789286487639458331345 (0x6A9ADC516ECA07FB1053520321283AD1)
Complete name : /Users/imac/HandBrake/Proximity.BDRip.1080p.pk.mkv
Format : Matroska
Format version : Version 4
File size : 8.24 GiB
Duration : 1 h 59 min
Overall bit rate : 9 884 kb/s
Movie name : Proximity BDRip 1080p pk
Encoded date : UTC 2020-08-27 09: 09: 14
Writing application : mkvmerge v49.0.0 (\'Sick Of Losing Soulmates\') 64-bit
Writing library : libebml v1.4.0 + libmatroska v1.6.1
Video
ID : 1
Format : AVC
Format/Info : Advanced Video Codec
Format profile : High@L4.1
Format settings : CABAC/5 Ref Frames
Format settings, CABAC : Yes
Format settings, Reference frames : 5 frames
Codec ID : V_MPEG4/ISO/AVC
Duration : 1 h 59 min
Bit rate : 8 000 kb/s
Width : 1 920 pixels
Height : 812 pixels
Display aspect ratio : 2.35: 1
Frame rate mode : Constant
Frame rate : 23.976 (24000/1001) FPS
Color space : YUV
Chroma subsampling : 4: 2: 0
Bit depth : 8 bits
Scan type : Progressive
Bits/(Pixel*Frame) : 0.214
Stream size : 6.66 GiB (81%)
Writing library : x264 core 157 r2935 545de2f
Encoding settings : cabac=1/ref=5/deblock=1: -3: -2/analyse=0x3: 0x133/me=umh/subme=9/psy=1/psy_rd=1.00: 0.00/mixed_ref=1/me_range=32/chroma_me=1/trellis=2/8x8dct=1/cqm=0/deadzone=6, 6/fast_pskip=1/chroma_qp_offset=-2/threads=25/lookahead_threads=6/sliced_threads=0/nr=0/decimate=0/interlaced=0/bluray_compat=0/constrained_intra=0/bframes=16/b_pyramid=2/b_adapt=2/b_bias=0/direct=3/weightb=1/open_gop=0/weightp=2/keyint=240/keyint_min=24/scenecut=40/intra_refresh=0/rc_lookahead=40/rc=2pass/mbtree=1/bitrate=8000/ratetol=1.0/qcomp=0.80/qpmin=0/qpmax=69/qpstep=4/cplxblur=20.0/qblur=0.5/vbv_maxrate=62500/vbv_bufsize=78125/nal_hrd=none/filler=0/ip_ratio=1.10/aq=1: 0.50
Language : English
Default : Yes
Forced : No
Color range : Limited
Color primaries : BT.709
Transfer characteristics : BT.709
Matrix coefficients : BT.709
Audio #1
ID : 2
Format : AC-3
Format/Info : Audio Coding 3
Commercial name : Dolby Digital
Codec ID : A_AC3
Duration : 1 h 59 min
Bit rate mode : Constant
Bit rate : 384 kb/s
Channel(s) : 6 channels
Channel layout : L R C LFE Ls Rs
Sampling rate : 48.0 kHz
Frame rate : 31.250 FPS (1536 SPF)
Compression mode : Lossy
Stream size : 328 MiB (4%)
Title : Russian MVO iTunes
Language : Russian
Service kind : Complete Main
Default : Yes
Forced : No
Audio #2
ID : 3
Format : DTS
Format/Info : Digital Theater Systems
Codec ID : A_DTS
Duration : 1 h 59 min
Bit rate mode : Constant
Bit rate : 1 509 kb/s
Channel(s) : 6 channels
Channel layout : C L R Ls Rs LFE
Sampling rate : 48.0 kHz
Frame rate : 93.750 FPS (512 SPF)
Bit depth : 24 bits
Compression mode : Lossy
Stream size : 1.26 GiB (15%)
Title : English Original
Language : English
Default : No
Forced : No
Text #1
ID : 4
Format : UTF-8
Codec ID : S_TEXT/UTF8
Codec ID/Info : UTF-8 Plain Text
Duration : 1 h 55 min
Bit rate : 2 b/s
Count of elements : 42
Stream size : 2.49 KiB (0%)
Title : Russian forced
Language : Russian
Default : Yes
Forced : No
Text #2
ID : 5
Format : UTF-8
Codec ID : S_TEXT/UTF8
Codec ID/Info : UTF-8 Plain Text
Duration : 1 h 56 min
Bit rate : 81 b/s
Count of elements : 1433
Stream size : 69.2 KiB (0%)
Title : Russian full
Language : Russian
Default : No
Forced : No
Text #3
ID : 6
Format : UTF-8
Codec ID : S_TEXT/UTF8
Codec ID/Info : UTF-8 Plain Text
Duration : 1 h 56 min
Bit rate : 44 b/s
Count of elements : 1424
Stream size : 37.8 KiB (0%)
Title : English full
Language : English
Default : No
Forced : No
Text #4
ID : 7
Format : UTF-8
Codec ID : S_TEXT/UTF8
Codec ID/Info : UTF-8 Plain Text
Duration : 1 h 58 min
Bit rate : 51 b/s
Count of elements : 1724
Stream size : 45.0 KiB (0%)
Title : English SDH
Language : English
Default : No
Forced : No
Menu
00: 00: 00.000 : : Chapter 1
00: 09: 34.449 : : Chapter 2
00: 18: 51.964 : : Chapter 3
00: 28: 40.135 : : Chapter 4
00: 40: 51.532 : : Chapter 5
00: 47: 50.117 : : Chapter 6
01: 01: 11.209 : : Chapter 7
01: 16: 45.267 : : Chapter 8
01: 27: 28.326 : : Chapter 9
01: 35: 14.792 : : Chapter 10
01: 47: 26.190 : : Chapter 11
01: 56: 02.414 : : Chapter 12

x264 info: frame I: 1291 Avg QP: 15.67 size: 195088
x264 info: frame P: 42320 Avg QP: 16.84 size: 72773
x264 info: frame B: 128134 Avg QP: 17.90 size: 29830
x264 info: consecutive B-frames: 4.9% 4.4% 13.8% 11.8% 15.3% 36.9% 5.4% 2.0% 1.2% 1.0% 1.0% 0.5% 0.3% 0.2% 0.2% 0.3% 0.7%
x264 info: mb I I16..4: 14.6% 74.4% 11.0%
x264 info: mb P I16..4: 3.6% 14.1% 1.1% P16..4: 44.8% 16.9% 12.4% 0.3% 0.1% skip: 6.7%
x264 info: mb B I16..4: 0.2% 1.3% 0.1% B16..8: 39.6% 9.0% 2.3% direct: 8.5% skip: 39.0% L0: 43.9% L1: 42.9% BI: 13.1%
x264 info: 8x8 transform intra: 76.2% inter: 61.5%
x264 info: direct mvs spatial: 97.8% temporal: 2.2%
x264 info: coded y, uvDC, uvAC intra: 76.6% 84.8% 65.9% inter: 28.0% 39.3% 19.8%
x264 info: i16 v, h, dc, p: 22% 14% 6% 58%
x264 info: i8 v, h, dc, ddl, ddr, vr, hd, vl, hu: 12% 11% 7% 9% 13% 13% 13% 11% 12%
x264 info: i4 v, h, dc, ddl, ddr, vr, hd, vl, hu: 11% 8% 5% 10% 17% 14% 13% 10% 11%
x264 info: i8c dc, h, v, p: 43% 21% 17% 19%
x264 info: Weighted P-Frames: Y: 1.8% UV: 1.1%
x264 info: ref P L0: 56.6% 10.0% 18.7% 7.3% 6.9% 0.5% 0.0%
x264 info: ref B L0: 76.6% 16.1% 5.8% 1.5%
x264 info: ref B L1: 93.8% 6.2%
x264 info: kb/s: 7989.54

Скриншоты для ознакомления



Все одноименные релизы в Клубе
Время раздачи: 24/7 (круглосуточно) (до появления первых 3-5 скачавших)
 
Уважаемый посетитель, Вы зашли на сайт как незарегистрированный пользователь. Мы рекомендуем Вам зарегистрироваться либо зайти на сайт под своим именем.

Другие новости по теме:

  • Discovery. Близкие контакты / Close encounters (2014-2015) HDTVRip [H.264 / 720p-LQ] [сезон 1-2, серии 1-21 из 30] [обновляемая] скачать через торрент бесплатно
  • Близкие контакты третьей степени / Close Encounters of the Third Kind (1977) BDRip [H.264]
  • Близкие контакты третьей степени / Close Encounters of the Third Kind (1977) UHD BDRemux [H.265 / 2160p] [4K, HDR, 10-bit]
  • Близкие контакты третьей степени / Close Encounters of the Third Kind (1977) BDRip [H.264 / 1080p]
  • Близкие контакты третьей степени / Close Encounters of the Third Kind (1977) BDRip [4K Remastered, Directors Cut]
  • Близкие контакты третьей степени / Close Encounters of the Third Kind (1977) BDRip [H.264 / 720p] [Directors Cut] [PR]
  • Близкие контакты / Proximity (2020) BDRemux [H.264 / 1080p]
  • Близкие контакты / Proximity (2020) BDRip [1080p] ATV3


  • Информация
    Посетители, находящиеся в группе Гости, не могут оставлять комментарии в данной новости.
    Главная страница | Регистрация | Добавить новость | Новое на сайте Copyright © 2019. bolt.mmix.club All Rights Reserved