Подписывайся на наш канал в Telegram https://t.me/torrentok и получи доступ к торрентам без ограничений!
. bolt.mmix.club
Авторские права
con...@...Показать
Вход на сайт
Логин:
Пароль:
 
Навигация по сайту
Популярные статьи

Торрент трекер | Скачать торрент | Скачать через Торрент | Скачать торрент бесплатно | Скачать торрент без регистрации Фильмы торрент скачать Преследование / Bumperkleef (2019) BDRemux [H.264 / 1080p] торрент скачать бесплатно

Преследование / Bumperkleef (2019) BDRemux [H.264 / 1080p] торрент скачать бесплатно

Фильмы торрент скачать
Преследование / Bumperkleef (2019) BDRemux [H.264 / 1080p]Производство: Нидерланды/Topkapi Films, AVROTROS, Savage Film
Жанр: Ужасы, Триллер
Режиссер: Лодевейк Крейнс

Актеры
Ерун Шпиценбергер, Анник Фейфер, Розмарин ван дер Хук, Лиз Вергер, Вилем де Вольф, Труус те Селле, Хьюберт Фермин, Тим Линде, Питер Бланкенстейн, Стэйси Матла

Описание

Молодая семья отправляется в путешествие на автомобиле. Уверенный в себе отец семейства совершает опасный маневр, подгоняя нерасторопного водителя минивэна. Однако такая дерзость не остается безнаказанной, и минивэн начинает преследование обидчика. Никто не мог представить, что эта поездка для всей семьи превратится в настоящую борьбу за жизнь.


Возраст: 16+ (зрителям, достигшим 16 лет)
Дата мировой премьеры: 30 сентября 2019
Дата российской премьеры: Неизвестна
Релиз от: selezen
Продолжительность: 01: 25: 19
Качество видео: BDRemux
Перевод: Дублированный
Субтитры: Русские (Full), Английские
Видео: MPEG-2, 1920x1080, ~17, 9 Mbps
Аудио 1: AC3, 6 ch, 384 Kbps - Русский (DUB, iTunes)
Аудио 2: DTS-HD MA, 6 ch, 3672 Kbps - Немецкий
General
Unique ID : 129052778608828779087449169474393899963 (0x6116A93C13094194EA19B5A6650E83BB)
Complete name : D: Video111Bumperkleef.2019.BDREMUX.1080p.seleZen.mkv
Format : Matroska
Format version : Version 4
File size : 13.1 GiB
Duration : 1 h 25 min
Overall bit rate mode : Variable
Overall bit rate : 21.9 Mb/s
Movie name : Bumperkleef 2019 from селезень
Encoded date : UTC 2020-08-27 01: 14: 51
Writing application : mkvmerge v40.0.0 (\'Old Town Road + Pony\') 64-bit
Writing library : libebml v1.3.9 + libmatroska v1.5.2
Video
ID : 1
Format : MPEG Video
Format version : Version 2
Format profile : Main@High
Format settings : CustomMatrix/BVOP
Format settings, BVOP : Yes
Format settings, Matrix : Custom
Format settings, GOP : M=3, N=15
Codec ID : V_MPEG2
Codec ID/Info : MPEG 1 or 2 Video
Duration : 1 h 25 min
Bit rate mode : Variable
Bit rate : 17.9 Mb/s
Maximum bit rate : 25.0 Mb/s
Width : 1 920 pixels
Height : 1 080 pixels
Display aspect ratio : 16: 9
Frame rate mode : Constant
Frame rate : 24.000 FPS
Color space : YUV
Chroma subsampling : 4: 2: 0
Bit depth : 8 bits
Scan type : Progressive
Compression mode : Lossy
Bits/(Pixel*Frame) : 0.359
Time code of first frame : 00: 00: 00: 00
Time code source : Group of pictures t_head
GOP, Open/Closed : Closed
Stream size : 10.6 GiB (81%)
Language : German
Default : Yes
Forced : No
Audio #1
ID : 2
Format : AC-3
Format/Info : Audio Coding 3
Commercial name : Dolby Digital
Codec ID : A_AC3
Duration : 1 h 25 min
Bit rate mode : Constant
Bit rate : 384 kb/s
Channel(s) : 6 channels
Channel layout : L R C LFE Ls Rs
Sampling rate : 48.0 kHz
Frame rate : 31.250 FPS (1536 SPF)
Compression mode : Lossy
Stream size : 234 MiB (2%)
Title : iTunes
Language : Russian
Service kind : Complete Main
Default : Yes
Forced : Yes
Audio #2
ID : 3
Format : DTS XLL
Format/Info : Digital Theater Systems
Commercial name : DTS-HD Master Audio
Codec ID : A_DTS
Duration : 1 h 25 min
Bit rate mode : Variable
Bit rate : 3 672 kb/s
Channel(s) : 6 channels
Channel layout : C L R Ls Rs LFE
Sampling rate : 48.0 kHz
Frame rate : 93.750 FPS (512 SPF)
Bit depth : 24 bits
Compression mode : Lossless
Stream size : 2.19 GiB (17%)
Title : Original
Language : German
Default : No
Forced : No
Text #1
ID : 4
Format : UTF-8
Codec ID : S_TEXT/UTF8
Codec ID/Info : UTF-8 Plain Text
Duration : 1 h 18 min
Bit rate : 68 b/s
Count of elements : 1219
Stream size : 39.6 KiB (0%)
Title : Full
Language : Russian
Default : No
Forced : No
Text #2
ID : 5
Format : UTF-8
Codec ID : S_TEXT/UTF8
Codec ID/Info : UTF-8 Plain Text
Duration : 1 h 18 min
Bit rate : 37 b/s
Count of elements : 702
Stream size : 21.7 KiB (0%)
Title : Full
Language : English
Default : No
Forced : No
Menu
00: 00: 00.000 : de: Глава 01
00: 10: 21.000 : de: Глава 02
00: 19: 33.000 : de: Глава 03
00: 30: 24.000 : de: Глава 04
00: 41: 19.000 : de: Глава 05
00: 52: 08.000 : de: Глава 06
01: 01: 40.000 : de: Глава 07
01: 13: 35.000 : de: Глава 08
01: 21: 02.000 : de: Глава 09

Скриншоты для ознакомления



Все одноименные релизы в Клубе
Время раздачи: 24/7 (мультитрекер)
 
Уважаемый посетитель, Вы зашли на сайт как незарегистрированный пользователь. Мы рекомендуем Вам зарегистрироваться либо зайти на сайт под своим именем.

Другие новости по теме:

  • Преследование / Bumperkleef (2019) WEB-DLRip [MVO] [AD]
  • Преследование / Bumperkleef (2019) WEB-DLRip [H.264 / 1080p-LQ] [MVO] [AD]
  • Преследование / Bumperkleef / Tailgate (2019) WEB-DLRip
  • Преследование / Bumperkleef / Tailgate (2019) WEB-DL [H.264 / 1080p-LQ]
  • Преследование / Bumperkleef (2019) WEB-DL [H.264 / 720p-LQ]
  • Преследование / Bumperkleef (2019) BDRip [H.264 / 1080p]
  • Преследование / Bumperkleef (2019) BDRip [H.264 / 720p]
  • Преследование / Bumperkleef (2019) BDRip [H.264 / 720p-LQ]


  • Информация
    Посетители, находящиеся в группе Гости, не могут оставлять комментарии в данной новости.
    Главная страница | Регистрация | Добавить новость | Новое на сайте Copyright © 2019. bolt.mmix.club All Rights Reserved