Подписывайся на наш канал в Telegram https://t.me/torrentok и получи доступ к торрентам без ограничений!
. bolt.mmix.club
Авторские права
con...@...Показать
Вход на сайт
Логин:
Пароль:
 
Навигация по сайту
Популярные статьи

Торрент трекер | Скачать торрент | Скачать через Торрент | Скачать торрент бесплатно | Скачать торрент без регистрации Фильмы торрент скачать Исчезновение / Scomparsa (2017) HDTVRip [H.264 / 720p-LQ] (сезон 1, серии 1-12 из 12) ViruseProject [AD] торрент скачать бесплатно

Исчезновение / Scomparsa (2017) HDTVRip [H.264 / 720p-LQ] (сезон 1, серии 1-12 из 12) ViruseProject [AD] торрент скачать бесплатно

Фильмы торрент скачать
Исчезновение / Scomparsa (2017) HDTVRip [H.264 / 720p-LQ] (сезон 1, серии 1-12 из 12) ViruseProject [AD]Производство: Италия
Жанр: драма
Режиссер: Фабрицио Коста

Актеры
Ванесса Инконтрада, Джузеппе Дзено, Gianluca Caldironi, Ферруччо Ферранте, Rossella Ambrosini, Matteo de Buono, Matteo De Buono, Этторе Николетти, Федерико Руссо, Джанлука Ваннуччи и д.р.

Описание

Нора Телезе в одиночку воспитывает 16-летнюю дочь Камиллу. Однажды они переезжают из Милана в Сан-Бенедетто-дель-Тронто. Камилла быстро осваивается с такой переменой и без труда находит общий язык со своими сверстниками, в частности с Соней, которая вскоре становится её лучшей подругой. Как-то раз в субботу вечером девочки говорят родителям, что будут ночевать друг у друга, а сами идут на школьную вечеринку и не возвращаются с неё. В поисках дочери Нора обращается в дом Андреа Пазини, друга девушек, который сопровождал их на вечеринку, но тот заявляет, что девочки были в компании молодых людей, которые не учатся в их школе. Нора чувствует, что её дочь в беде, но где её искать и как ей помочь?


Релиз от: ViruseProject
Продолжительность: ~01: 30: 00 серии
Качество видео: HDTVRip 720p
Перевод: Двуголосый профессиональный (ViruseProject)
Субтитры: Русские
Реклама: Присутствуют видео, аудио вставки рекламы
Видео: AVC/H.264, 1280 x 720 (16: 9), ~2000 Kbps
Аудио #1 : AC3, 2 ch, 192 Kbps - русский
Аудио #2 : AAC, 2 ch, 192 Kbps - итальянский
Общее
Уникальный идентификатор : 189794286221895335109747461578543723907 (0x8EC90CC6F4DC0B3DA21F73A6B04DF583)
Полное имя : Scomparsa.S01E01-02.720p.HDTVRip.ViruseProject.mkv
Формат : Matroska
Версия формата : Version 4
Размер файла : 1, 51 Гбайт
Продолжительность : 1 ч. 30 м.
Общий поток : 2 383 Кбит/сек
Дата кодирования : UTC 2020-08-24 08: 46: 09
Программа кодирования : mkvmerge v8.3.0 (\'Over the Horizon\') 64bit
Библиотека кодирования : libebml v1.3.1 + libmatroska v1.4.2
Видео
Идентификатор : 1
Формат : AVC
Формат/Информация : Advanced Video Codec
Профиль формата : High@L4.2
Настройки формата : CABAC/4 Ref Frames
Параметр CABAC формата : Да
Параметр RefFrames формата : 4 кадра
Идентификатор кодека : V_MPEG4/ISO/AVC
Продолжительность : 1 ч. 30 м.
Битрейт : 1 999 Кбит/сек
Ширина : 1 280 пикселей
Высота : 720 пикселей
Соотношение сторон : 16: 9
Режим частоты кадров : Постоянный
Частота кадров : 25, 000 кадров/сек
Цветовое пространство : YUV
Субдискретизация насыщенности : 4: 2: 0
Битовая глубина : 8 бит
Тип развёртки : Прогрессивная
Бит/(Пиксели*Кадры) : 0.087
Размер потока : 1, 26 Гбайт (84%)
Язык : English
Default : Да
Forced : Нет
Цветовой диапазон : Limited
Основные цвета : BT.709
Характеристики трансфера : BT.709
Коэффициенты матрицы : BT.709
Аудио #1
Идентификатор : 2
Формат : AC-3
Формат/Информация : Audio Coding 3
Коммерческое название : Dolby Digital
Идентификатор кодека : A_AC3
Продолжительность : 1 ч. 30 м.
Вид битрейта : Постоянный
Битрейт : 192 Кбит/сек
Каналы : 2 канала
Channel layout : L R
Частота : 48, 0 КГц
Частота кадров : 31, 250 кадров/сек (1536 SPF)
Метод сжатия : С потерями
Размер потока : 124 Мбайт (8%)
Заголовок : ViruseProject
Язык : Russian
Service kind : Complete Main
Default : Да
Forced : Нет
Аудио #2
Идентификатор : 3
Формат : AAC LC
Формат/Информация : Advanced Audio Codec Low Complexity
Идентификатор кодека : A_AAC-2
Продолжительность : 1 ч. 30 м.
Битрейт : 192 Кбит/сек
Каналы : 2 канала
Channel layout : L R
Частота : 48, 0 КГц
Частота кадров : 46, 875 кадров/сек (1024 SPF)
Метод сжатия : С потерями
Размер потока : 123 Мбайт (8%)
Язык : Italian
Default : Нет
Forced : Нет
Текст
Идентификатор : 4
Формат : UTF-8
Идентификатор кодека : S_TEXT/UTF8
Идентификатор кодека/Информация : UTF-8 Plain Text
Продолжительность : 1 ч. 29 м.
Битрейт : 96 бит/сек
Count of elements : 1100
Размер потока : 63, 1 Кбайт (0%)
Язык : Russian
Default : Нет
Forced : Нет

Скриншоты для ознакомления



Все одноименные релизы в Клубе
Время раздачи: с 10: 00 до 24: 00 (до появления первых 3-5 скачавших)
 
Уважаемый посетитель, Вы зашли на сайт как незарегистрированный пользователь. Мы рекомендуем Вам зарегистрироваться либо зайти на сайт под своим именем.

Другие новости по теме:

  • Исчезновение / Scomparsa (2017) HDTVRip (сезон 1, серии 1-12 из 12) ViruseProject [AD]


  • Информация
    Посетители, находящиеся в группе Гости, не могут оставлять комментарии в данной новости.
    Главная страница | Регистрация | Добавить новость | Новое на сайте Copyright © 2019. bolt.mmix.club All Rights Reserved