Подписывайся на наш канал в Telegram https://t.me/torrentok и получи доступ к торрентам без ограничений!
. bolt.mmix.club
Авторские права
con...@...Показать
Вход на сайт
Логин:
Пароль:
 
Навигация по сайту
Популярные статьи

Торрент трекер | Скачать торрент | Скачать через Торрент | Скачать торрент бесплатно | Скачать торрент без регистрации Фильмы торрент скачать Позвони моему менеджеру / Menajerimi Ara (2020) WEB-DLRip [H.264 / 1080p-LQ] (сезон 1, серии 1 из ) (обновляемая) SesDizi [PR] торрент скачать бесплатно

Позвони моему менеджеру / Menajerimi Ara (2020) WEB-DLRip [H.264 / 1080p-LQ] (сезон 1, серии 1 из ) (обновляемая) SesDizi [PR] торрент скачать бесплатно

Фильмы торрент скачать
Позвони моему менеджеру / Menajerimi Ara (2020) WEB-DLRip [H.264 / 1080p-LQ] (сезон 1, серии 1 из ) (обновляемая) SesDizi [PR]Производство: Турция/Ay Yapım
Жанр: комедия
Режиссер: Али Бильгин

Актеры
Барыш Фалай, Джанан Эргюдер, Фатих Артман, Ахсен Эроглу, Айшениль Шамлыоглу, Дениз Джан Акташ, Туба Бюйюкюстюн и др.

Описание

Каждый день менеджеры агентства талантов манипулируют сложными ситуациями и защищают свое видение бизнеса. Они умело сочетают искусство и бизнес, но их личная и профессиональная жизнь иногда вступает в конфликт. Изо всех сил пытаясь спасти свое агентство, потрясенное внезапной смертью его основателя, четыре агента уводят нас за кулисы дикого мира знаменитостей; где смех, эмоции, нарушение и слезы постоянно сталкиваются.


Дата мировой премьеры: 25 августа 2020
Продолжительность: ~02: 15: 00 серия
Качество видео: WEB-DLRip
Перевод: Двуголосый любительский (SesDizi)
Видео: AVC/H.264, 1920x1080 (16: 9), ~2570 kbps
Аудио: AAC, 2 ch, 192 kbps
General
Unique ID : 76179432250558961598192999469351536640 (0x394F9FFE267F3BC5D5050CE9E4C18800)
Complete name : J: Menajerimi Ara.s01.WEB-DLRip1080p.SesDiziMenajerimi Ara.s01.e01.WEB-DLRip1080p.mkv
Format : Matroska
Format version : Version 4
File size : 2.60 GiB
Duration : 2 h 14 min
Overall bit rate : 2 763 kb/s
Encoded date : UTC 2020-08-26 11: 18: 48
Writing application : mkvmerge v47.0.0 (\'Black Flag\') 64-bit
Writing library : libebml v1.3.10 + libmatroska v1.5.2
Video
ID : 1
Format : AVC
Format/Info : Advanced Video Codec
Format profile : High@L4
Format settings : CABAC/3 Ref Frames
Format settings, CABAC : Yes
Format settings, Reference fra : 3 frames
Codec ID : V_MPEG4/ISO/AVC
Duration : 2 h 14 min
Bit rate : 2 568 kb/s
Width : 1 920 pixels
Height : 1 080 pixels
Display aspect ratio : 16: 9
Frame rate mode : Constant
Frame rate : 25.000 FPS
Color space : YUV
Chroma subsampling : 4: 2: 0
Bit depth : 8 bits
Scan type : Progressive
Bits/(Pixel*Frame) : 0.050
Stream size : 2.42 GiB (93%)
Default : Yes
Forced : No
Color range : Limited
Color primaries : BT.709
Transfer characteristics : BT.709
Matrix coefficients : BT.709
Audio
ID : 2
Format : AAC LC
Format/Info : Advanced Audio Codec Low Complexity
Codec ID : A_AAC-2
Duration : 2 h 14 min
Bit rate : 192 kb/s
Channel(s) : 2 channels
Channel layout : L R
Sampling rate : 44.1 kHz
Frame rate : 43.066 FPS (1024 SPF)
Compression mode : Lossy
Delay relative to video : -80 ms
Stream size : 185 MiB (7%)
Default : Yes
Forced : No
 
Уважаемый посетитель, Вы зашли на сайт как незарегистрированный пользователь. Мы рекомендуем Вам зарегистрироваться либо зайти на сайт под своим именем.

Другие новости по теме:

  • Сергей Волоколамский - Позвони (2009) [FLAC|Lossless|image + .cue] <Chanson>


  • Информация
    Посетители, находящиеся в группе Гости, не могут оставлять комментарии в данной новости.
    Главная страница | Регистрация | Добавить новость | Новое на сайте Copyright © 2019. bolt.mmix.club All Rights Reserved