Подписывайся на наш канал в Telegram https://t.me/torrentok и получи доступ к торрентам без ограничений!
. bolt.mmix.club
Авторские права
con...@...Показать
Вход на сайт
Логин:
Пароль:
 
Навигация по сайту
Популярные статьи

Торрент трекер | Скачать торрент | Скачать через Торрент | Скачать торрент бесплатно | Скачать торрент без регистрации Фильмы торрент скачать Биохакеры / Biohackers (2020) WEBRip [H.264 / 1080p-LQ] (сезон 1, серии 1-6 из 6) IdeaFilm торрент скачать бесплатно

Биохакеры / Biohackers (2020) WEBRip [H.264 / 1080p-LQ] (сезон 1, серии 1-6 из 6) IdeaFilm торрент скачать бесплатно

Фильмы торрент скачать
Биохакеры / Biohackers (2020) WEBRip [H.264 / 1080p-LQ] (сезон 1, серии 1-6 из 6) IdeaFilmПроизводство: Германия
Жанр: фантастика, триллер, драма
Режиссер: Кристиан Диттер

Актеры
Луна Ведлер, Каро Культ, Элеанор Дэниэл, Бенно Фюрман и др.

Описание

Одаренная студентка биофака Мия знакомится с преподавательницей Лоренц и её подопечными. Они проводят странноватые и, вероятно, не вполне законные эксперименты – заставляют мышь излучать зеленый свет в темноте, а растения у них превращаются в музыкальные инструменты. Мия интересует лабораторией не просто так – девушка подозревает, что Лоренц причастна к гибели её родственника.


Дата премьеры в России: 26.08.2020
Релиз от: IdeaFilm
Продолжительность: ~00: 45: 00 серия
Качество видео: WEBRip
Перевод: Двуголосый профессиональный (IdeaFilm)
Субтитры: Русские, английские, немецкие
Видео: AVC/H.264, 1920x1080, ~3726 Kbps
Аудио 1: AC3, 6 ch, 384 Kbps - русский
Аудио 2: Е-AC3, 6 ch, 640 Kbps - немецкий
Общее
Уникальный идентификатор : 291833046713766941955105749918657061847 (0xDB8D001676E61442F2B526FDCAC0A3D7)
Полное имя : E: Закачки 2Biohackers.S01.GERMAN.1080p.NF.WEBRip.DDP5.1.x264-CRYPTIC_DreamcatcherBiohackers.S01E01.1080p.WEB.H264-CRYPTIC_Dreamcatcher.mkv
Формат : Matroska
Версия формата : Version 4
Размер файла : 1, 46 Гбайт
Продолжительность : 44 м. 7 с.
Режим общего битрейта : Переменный
Общий поток : 4 750 Кбит/сек
Дата кодирования : UTC 2020-08-23 07: 46: 49
Программа кодирования : mkvmerge v45.0.0 (\'Heaven in Pennies\') 64-bit
Библиотека кодирования : libebml v1.3.10 + libmatroska v1.5.2
Видео
Идентификатор : 1
Формат : AVC
Формат/Информация : Advanced Video Codec
Профиль формата : Main@L4
Настройки формата : CABAC/3 Ref Frames
Параметр CABAC формата : Да
Параметр RefFrames формата : 3 кадра
Идентификатор кодека : V_MPEG4/ISO/AVC
Продолжительность : 44 м. 6 с.
Вид битрейта : Переменный
Битрейт : 3 726 Кбит/сек
Номинальный битрейт : 4 420 Кбит/сек
Максимальный битрейт : 6 630 Кбит/сек
Ширина : 1 920 пикселей
Высота : 1 080 пикселей
Соотношение сторон : 16: 9
Режим частоты кадров : Постоянный
Частота кадров : 24, 000 кадра/сек
Цветовое пространство : YUV
Субдискретизация насыщенности : 4: 2: 0
Битовая глубина : 8 бит
Тип развёртки : Прогрессивная
Бит/(Пиксели*Кадры) : 0.075
Размер потока : 1, 15 Гбайт (78%)
Библиотека кодирования : x264 core 148 r2722 1b0121b
Настройки программы : cabac=1/ref=3/deblock=1: 0: 0/analyse=0x1: 0x111/me=umh/subme=10/psy=1/psy_rd=1.00: 0.00/mixed_ref=1/me_range=24/chroma_me=1/trellis=2/8x8dct=0/cqm=0/deadzone=21, 11/fast_pskip=1/chroma_qp_offset=-2/threads=8/lookahead_threads=1/sliced_threads=0/nr=0/decimate=1/interlaced=0/bluray_compat=0/stitchable=1/constrained_intra=0/bframes=2/b_pyramid=0/b_adapt=2/b_bias=0/direct=3/weightb=1/open_gop=0/weightp=2/keyint=250/keyint_min=24/scenecut=0/intra_refresh=0/rc_lookahead=48/rc=2pass/mbtree=1/bitrate=4420/ratetol=1.0/qcomp=0.50/qpmin=6/qpmax=51/qpstep=4/cplxblur=20.0/qblur=0.5/vbv_maxrate=6630/vbv_bufsize=8840/nal_hrd=vbr/filler=0/ip_ratio=1.40/aq=1: 1.00
Default : Да
Forced : Нет
Аудио #1
Идентификатор : 2
Формат : AC-3
Формат/Информация : Audio Coding 3
Коммерческое название : Dolby Digital
Идентификатор кодека : A_AC3
Продолжительность : 44 м. 7 с.
Вид битрейта : Постоянный
Битрейт : 384 Кбит/сек
Каналы : 6 каналов
Channel layout : L R C LFE Ls Rs
Частота : 48, 0 КГц
Частота кадров : 31, 250 кадров/сек (1536 SPF)
Метод сжатия : С потерями
Размер потока : 121 Мбайт (8%)
Заголовок : IdeaFilm
Язык : Russian
Service kind : Complete Main
Default : Да
Forced : Нет
Аудио #2
Идентификатор : 3
Формат : E-AC-3
Формат/Информация : Enhanced AC-3
Коммерческое название : Dolby Digital Plus
Идентификатор кодека : A_EAC3
Продолжительность : 44 м. 6 с.
Вид битрейта : Постоянный
Битрейт : 640 Кбит/сек
Каналы : 6 каналов
Channel layout : L R C LFE Ls Rs
Частота : 48, 0 КГц
Частота кадров : 31, 250 кадров/сек (1536 SPF)
Метод сжатия : С потерями
Размер потока : 202 Мбайт (13%)
Заголовок : German
Язык : German
Service kind : Complete Main
Default : Нет
Forced : Нет
Текст #1
Идентификатор : 4
Формат : UTF-8
Идентификатор кодека : S_TEXT/UTF8
Идентификатор кодека/Информация : UTF-8 Plain Text
Продолжительность : 36 м. 9 с.
Битрейт : 71 бит/сек
Count of elements : 416
Размер потока : 19, 0 Кбайт (0%)
Заголовок : Russian
Язык : Russian
Default : Да
Forced : Нет
Текст #2
Идентификатор : 5
Формат : UTF-8
Идентификатор кодека : S_TEXT/UTF8
Идентификатор кодека/Информация : UTF-8 Plain Text
Продолжительность : 35 м. 43 с.
Битрейт : 49 бит/сек
Count of elements : 413
Размер потока : 12, 9 Кбайт (0%)
Заголовок : English
Язык : English
Default : Нет
Forced : Да
Текст #3
Идентификатор : 6
Формат : UTF-8
Идентификатор кодека : S_TEXT/UTF8
Идентификатор кодека/Информация : UTF-8 Plain Text
Продолжительность : 34 м. 34 с.
Битрейт : 85 бит/сек
Count of elements : 514
Размер потока : 21, 7 Кбайт (0%)
Заголовок : German
Язык : German
Default : Нет
Forced : Нет

Скриншоты для ознакомления



Все одноименные релизы в Клубе
Время раздачи: до появления первых 3-5 скачавших
 
Уважаемый посетитель, Вы зашли на сайт как незарегистрированный пользователь. Мы рекомендуем Вам зарегистрироваться либо зайти на сайт под своим именем.

Другие новости по теме:

  • Биохакеры / Biohackers (2020) WEBRip [H.264 / 1080p-LQ](сезон 1, серии 1 из 6) ViruseProject (обновляемая) [AD]
  • Биохакеры / Biohackers (2020) WEBRip (сезон 1, серии 1 из 6) ViruseProject (обновляемая) [AD]


  • Информация
    Посетители, находящиеся в группе Гости, не могут оставлять комментарии в данной новости.
    Главная страница | Регистрация | Добавить новость | Новое на сайте Copyright © 2019. bolt.mmix.club All Rights Reserved