Подписывайся на наш канал в Telegram https://t.me/torrentok и получи доступ к торрентам без ограничений!
. bolt.mmix.club
Авторские права
con...@...Показать
Вход на сайт
Логин:
Пароль:
 
Навигация по сайту
Популярные статьи

Торрент трекер | Скачать торрент | Скачать через Торрент | Скачать торрент бесплатно | Скачать торрент без регистрации Фильмы торрент скачать Исключение / The Exception (2016) WEBRip [H.264 / 1080p-LQ] [Open Matte] [Локализованная версия] [PR] торрент скачать бесплатно

Исключение / The Exception (2016) WEBRip [H.264 / 1080p-LQ] [Open Matte] [Локализованная версия] [PR] торрент скачать бесплатно

Фильмы торрент скачать
Исключение / The Exception (2016) WEBRip [H.264 / 1080p-LQ] [Open Matte] [Локализованная версия] [PR]Производство: США, Великобритания/Egoli Tossell KLK, Alton Road Productions, Ostar Productions
Жанр: Драма, Мелодрама, Военный
Режиссер: Давид Лево

Актеры
Лоис ван Вейк, Джай Кортни, Карин Леклерк, Энтон Лессер, Кристофер Пламмер, Aubeline Barbieux, Джанет МакТир, Лили Джеймс, Стефан Оберген, Бен Дэниелс

Описание

Нидерланды 40-х годов. Когда офицер вермахта получает приказ определить, проник ли британский шпион в резиденцию кайзера с целью убийства свергнутого монарха, он влюбляется в одну из горничных кайзера во время своего расследования.


Рейтинг MPAA: R (лицам до 17 лет обязательно присутствие взрослого)
Продолжительность: 01: 42: 45
Качество видео: WEBRip
Перевод: Многоголосый профессиональный
Субтитры: отсутствуют
Видео: AVC/H.264, 1920x1080, 25 fps, ~5120 Kbps
Аудио 1: AAC LC, 6 ch, 512 Kbps - Русский (MVO)
Аудио 2: AAC LC, 6 ch, 512 Kbps - Английский
General
Unique ID : 31258169826193247110348436459026640536 (0x17841AC2507518C4EAD8668BF16BEE98)
Complete name : D: The Exception_2016_WEB-DL 1080p.mkv
Format : Matroska
Format version : Version 4
File size : 4.41 GiB
Duration : 1 h 42 min
Overall bit rate : 6 142 kb/s
Encoded date : UTC 2020-07-19 15: 39: 57
Writing application : mkvmerge v48.0.0 (\'Fortress Around Your Heart\') 64-bit
Writing library : libebml v1.4.0 + libmatroska v1.6.0
Video
ID : 1
Format : AVC
Format/Info : Advanced Video Codec
Format profile : High@L4
Format settings : CABAC/4 Ref Frames
Format settings, CABAC : Yes
Format settings, Reference : 4 frames
Format settings, GOP : M=1, N=50
Codec ID : V_MPEG4/ISO/AVC
Duration : 1 h 42 min
Bit rate : 5 120 kb/s
Width : 1 920 pixels
Height : 1 080 pixels
Display aspect ratio : 16: 9
Frame rate mode : Constant
Frame rate : 25.000 FPS
Color space : YUV
Chroma subsampling : 4: 2: 0
Bit depth : 8 bits
Scan type : Progressive
Bits/(Pixel*Frame) : 0.099
Stream size : 3.67 GiB (83%)
Writing library : x264 core 142
Encoding settings : cabac=1/ref=3/deblock=1: 0: 0/analyse=0x3: 0x113/me=hex/subme=7/psy=1/psy_rd=1.00: 0.00/mixed_ref=1/me_range=16/chroma_me=1/trellis=1/8x8dct=1/cqm=0/deadzone=21, 11/fast_pskip=1/chroma_qp_offset=-2/threads=48/lookahead_threads=8/sliced_threads=0/nr=0/decimate=1/interlaced=0/bluray_compat=0/constrained_intra=0/bframes=6/b_pyramid=2/b_adapt=1/b_bias=0/direct=1/weightb=1/open_gop=0/weightp=2/keyint=50/keyint_min=26/scenecut=0/intra_refresh=0/rc_lookahead=40/rc=2pass/mbtree=1/bitrate=5120/ratetol=1.0/qcomp=0.60/qpmin=0/qpmax=69/qpstep=4/cplxblur=20.0/qblur=0.5/vbv_maxrate=7680/vbv_bufsize=20480/nal_hrd=none/filler=0/ip_ratio=1.40/aq=1: 1.00
Default : Yes
Forced : No
Audio #1
ID : 2
Format : AAC LC
Format/Info : Advanced Audio Codec Low Complexity
Codec ID : A_AAC-2
Duration : 1 h 42 min
Bit rate : 512 kb/s
Channel(s) : 6 channels
Channel layout : C L R Ls Rs LFE
Sampling rate : 48.0 kHz
Frame rate : 46.875 FPS (1024 SPF)
Compression mode : Lossy
Stream size : 376 MiB (8%)
Language : Russian
Default : Yes
Forced : No
Audio #2
ID : 3
Format : AAC LC
Format/Info : Advanced Audio Codec Low Complexity
Codec ID : A_AAC-2
Duration : 1 h 42 min
Bit rate : 512 kb/s
Channel(s) : 6 channels
Channel layout : C L R Ls Rs LFE
Sampling rate : 48.0 kHz
Frame rate : 46.875 FPS (1024 SPF)
Compression mode : Lossy
Stream size : 376 MiB (8%)
Language : English
Default : No
Forced : No
 
Уважаемый посетитель, Вы зашли на сайт как незарегистрированный пользователь. Мы рекомендуем Вам зарегистрироваться либо зайти на сайт под своим именем.

Другие новости по теме:

  • Исключение / The Exception (2016) WEB-DL [H.264 / 1080p-LQ] [EN / EN Sub]
  • Исключение / The Exception (2016) BDRip [1080p] ATV (MVO)
  • Исключение / The Exception (2016) BDRip [H.264 / 1080p]
  • Исключение / The Exception (2016) BDRemux [H.264 / 1080p]
  • Исключение / The Exception (2016) BDRip [720p] ATV
  • Исключение / The Exception (2016) BDRip [1080p] ATV
  • Исключение / The Exception (2016) BDRip [576p] iPad


  • Информация
    Посетители, находящиеся в группе Гости, не могут оставлять комментарии в данной новости.
    Главная страница | Регистрация | Добавить новость | Новое на сайте Copyright © 2019. bolt.mmix.club All Rights Reserved