Подписывайся на наш канал в Telegram https://t.me/torrentok и получи доступ к торрентам без ограничений!
. bolt.mmix.club
Авторские права
con...@...Показать
Вход на сайт
Логин:
Пароль:
 
Навигация по сайту
Популярные статьи

Торрент трекер | Скачать торрент | Скачать через Торрент | Скачать торрент бесплатно | Скачать торрент без регистрации Фильмы торрент скачать За гранью страха / Граница / Borderland (2007) BDRip [H.264 / 1080p-LQ] [MVO] торрент скачать бесплатно

За гранью страха / Граница / Borderland (2007) BDRip [H.264 / 1080p-LQ] [MVO] торрент скачать бесплатно

Фильмы торрент скачать
За гранью страха / Граница / Borderland (2007) BDRip [H.264 / 1080p-LQ] [MVO]Производство: Мексика, США/Tonic Films, Freedom Films
Жанр: ужасы, триллер, криминал
Режиссер: Зев Берман

Актеры
Брайан Прэсли, Райдер Стронг, Джэйк Максворфи, Бету Куэва, с Марта Игареда, Шон Эстин, Дамиан Алькасар, Марко Бакуцци, Роберто Соса, Хосе Мария Яспик

Описание

Три студента колледжа, Фил, Эд, и Генри отправляются в автопутешествие по Мексике, чтобы провести целую неделю в беззаботных пьянках и веселье. Но в этой латиноамериканской стране их ждет настоящий кошмар - Фил оказывается пленником группы мексиканских наркоконтрабандистов.
Бандиты оказываются еще и членами сатанинского культа, и как раз подыскивают новую кандидатуру для жертвоприношения...


Возраст: 16+ (зрителям, достигшим 16 лет)
Рейтинг MPAA: R (лицам до 17 лет обязательно присутствие взрослого)
Релиз от: SergeyAms
Продолжительность: 01: 45: 25
Качество видео: BDRip
Перевод: Многоголосый профессиональный
Субтитры: русские (полные)
Видео: AVC/H.264, 1920x818, ~4 Mbps
Аудио: AC3, 6 ch, 448 kbps
Unique ID : 236498217044326937818467953319957491833 (0xB1EBE6594AB93F2389D9BD308AAFF079)
Complete name : D: TempNNMBorderland.2007.1080p.mkv
Format : Matroska
Format version : Version 4/Version 2
File size : 3.27 GiB
Duration : 1h 45mn
Overall bit rate : 4 442 Kbps
Writing library : Lavf57.71.100
Video
ID : 1
Format : AVC
Format/Info : Advanced Video Codec
Format profile : High@L4.1
Format settings, CABAC : Yes
Format settings, ReFrames : 5 frames
Codec ID : V_MPEG4/ISO/AVC
Duration : 1h 45mn
Bit rate : 4 000 Kbps
Width : 1 920 pixels
Height : 818 pixels
Display aspect ratio : 2.35: 1
Frame rate mode : Constant
Frame rate : 23.976 fps
Color space : YUV
Chroma subsampling : 4: 2: 0
Bit depth : 8 bits
Scan type : Progressive
Bits/(Pixel*Frame) : 0.106
Stream size : 2.88 GiB (88%)
Writing library : x264 core 157 r2935 545de2f
Encoding settings : cabac=1/ref=5/deblock=1: -2: -2/analyse=0x3: 0x113/me=umh/subme=11/psy=1/psy_rd=1.05: 0.10/mixed_ref=1/me_range=48/chroma_me=1/trellis=2/8x8dct=1/cqm=0/deadzone=21, 11/fast_pskip=0/chroma_qp_offset=-3/threads=13/lookahead_threads=2/sliced_threads=0/nr=0/decimate=0/interlaced=0/bluray_compat=0/constrained_intra=0/bframes=8/b_pyramid=2/b_adapt=2/b_bias=0/direct=1/weightb=1/open_gop=0/weightp=2/keyint=240/keyint_min=24/scenecut=40/intra_refresh=0/rc=2pass/mbtree=0/bitrate=4000/ratetol=1.0/qcomp=0.70/qpmin=3/qpmax=69/qpstep=4/cplxblur=20.0/qblur=0.5/ip_ratio=1.40/pb_ratio=1.30/aq=2: 1.00
Language : English
Default : Yes
Forced : No
Audio
ID : 2
Format : AC-3
Format/Info : Audio Coding 3
Mode extension : CM (complete main)
Format settings, Endianness : Big
Codec ID : A_AC3
Duration : 1h 45mn
Bit rate mode : Constant
Bit rate : 448 Kbps
Channel(s) : 6 channels
Channel positions : Front: L C R, Side: L R, LFE
Sampling rate : 48.0 KHz
Bit depth : 16 bits
Compression mode : Lossy
Stream size : 338 MiB (10%)
Title : DVO R5
Language : Russian
Default : Yes
Forced : No
Text
ID : 3
Format : UTF-8
Codec ID : S_TEXT/UTF8
Codec ID/Info : UTF-8 Plain Text
Language : Russian
Default : Yes
Forced : No
Menu
00: 00: 00.000 : : Глава 01
00: 09: 09.090 : : Глава 02
00: 16: 41.000 : : Глава 03
00: 21: 58.775 : : Глава 04
00: 24: 59.164 : : Глава 05
00: 30: 32.497 : : Глава 06
00: 35: 53.317 : : Глава 07
00: 40: 57.329 : : Глава 08
00: 45: 51.290 : : Глава 09
00: 51: 23.080 : : Глава 10
00: 56: 17.332 : : Глава 11
01: 01: 16.047 : : Глава 12
01: 06: 57.054 : : Глава 13
01: 11: 50.973 : : Глава 14
01: 15: 36.907 : : Глава 15
01: 20: 35.163 : : Глава 16
01: 28: 50.491 : : Глава 17
01: 39: 24.750 : : Глава 18

Скриншоты для ознакомления



Все одноименные релизы в Клубе
Время раздачи: 24/7 (до появления первых 3-5 скачавших)
 
Уважаемый посетитель, Вы зашли на сайт как незарегистрированный пользователь. Мы рекомендуем Вам зарегистрироваться либо зайти на сайт под своим именем.

Другие новости по теме:

  • Beyond: Two Souls / За Гранью: Две Души [PS3] [EUR] [Ru / En] [4.46] [Cobra ODE / E3 ODE PRO ISO] (2013) скачать через торрент бесплатно
  • За гранью: Жизнь после нефти (2014) SATRip [10-й выпуск] скачать через торрент бесплатно
  • Граdус - За Гранью (2014) [MP3|320 кб / с]<Alternative Rock>
  • Жизнь за гранью / После жизни / After.Life (2009) BDRip [1080p] скачать через торрент бесплатно
  • За гранью / Fringe (2009) HDTV [1080i] (2 сезон, серии 1-23) скачать через торрент бесплатно
  • Beyond: Two Souls / За Гранью: Две Души [PS3] [EUR] [Ru / En] [4.40] [Cobra ODE / E3 ODE Install ISO] (2013)
  • Kyoukai no Kanata / Beyond the Boundary / За гранью [2013, TV, 12 ep + SP] BDRip Hi10p 720p Raw+Rus
  • Grim Facade 6: Hidden Sins / За гранью жестокости 6: Тайные грехи (2015) [Ru] Unofficial [Collectors Edition / Коллекционное издание] скачать через торрент бесплатно


  • Информация
    Посетители, находящиеся в группе Гости, не могут оставлять комментарии в данной новости.
    Главная страница | Регистрация | Добавить новость | Новое на сайте Copyright © 2019. bolt.mmix.club All Rights Reserved