Подписывайся на наш канал в Telegram https://t.me/torrentok и получи доступ к торрентам без ограничений!
. bolt.mmix.club
Авторские права
con...@...Показать
Вход на сайт
Логин:
Пароль:
 
Навигация по сайту
Популярные статьи

Торрент трекер | Скачать торрент | Скачать через Торрент | Скачать торрент бесплатно | Скачать торрент без регистрации Фильмы торрент скачать Девушки идут навстречу ветру / Musume-tachi wa kaze ni mukatte (Советская прокатная копия) (1972) Screener [Dub] торрент скачать бесплатно

Девушки идут навстречу ветру / Musume-tachi wa kaze ni mukatte (Советская прокатная копия) (1972) Screener [Dub] торрент скачать бесплатно

Фильмы торрент скачать
Девушки идут навстречу ветру / Musume-tachi wa kaze ni mukatte (Советская прокатная копия) (1972) Screener [Dub]Производство: Япония, Мингэй Эйгаая
Жанр: Драма
Режиссер: Мицуо Вакасуги

Актеры
Хироко Ногава, Томоко Куримото, Кёко Хисабара, Судуэ Мори, Фудзи Фукудзава, Коити Ока, Ёити Ямамото, Итио Имото, Дзюкити Уно

Описание

Хозяева завода фирмы Одежда Дайто под предлогом банкротства сообщили о ликвидации производства. Девушки-работницы, объявив забастовку, заняли завод и продолжали выполнять незначительные заказы, которые им устраивали товарищи из других профсоюзов. Друзья снабжали их одеждой и пищей, одобряли морально. Не все из них смогли выдержать три года и семь месяцев борьбы - к концу забастовки из шестидесяти девушек на месте осталось только девять. Но они выстояли и победили: компания удовлетворила все их требования.

Релиз от: Rip by vitolinform
Продолжительность: 01: 25: 05
Качество видео: Screener
Перевод: Дублированный (Киностудия им. М. Горького)
Субтитры: отсутствуют
Видео: Xvid, 704x304, ~2067 kbps
Аудио: AC3, 2 ch, 224 Кbps | Русский (Dub, Киностудия им. М. Горького)
Общее
Полное имя : C: Devushki.idut.navstrechu.vetru.1972.Screener.avi
Формат : AVI
Формат/Информация : Audio Video Interleave
Размер файла : 1, 37 Гбайт
Продолжительность : 1 ч. 25 м.
Общий поток : 2 300 Кбит/сек
Название фильма : Девушки идут навстречу ветру/Musume-tachi wa kaze ni mukatte (1972) Screener
Режиссёр : Мицуо Вакасуги/Mitsuo Wakasugi
Жанр : Драма
Программа кодирования : VirtualDubMod 1.5.10.2 (build 2542/release)
Формат оригинала/Имя : Художественный фильм
Авторское право : Япония, Мингэй Эйгаая
Примечание : Rip by vitolinform
Видео
Идентификатор : 0
Формат : MPEG-4 Visual
Профиль формата : Advanced Simple@L5
Настройки формата : BVOP1
Параметр BVOP формата : 1
Параметр QPel формата : Нет
Параметр GMC формата : Без точки перехода
Параметр матрицы формата : Default (MPEG)
Идентификатор кодека : XVID
Идентификатор кодека/Подсказка : XviD
Продолжительность : 1 ч. 25 м.
Битрейт : 2 067 Кбит/сек
Ширина : 704 пикселя
Высота : 304 пикселя
Соотношение сторон : 2, 35: 1
Частота кадров : 23, 976 (24000/1001) кадра/сек
Цветовое пространство : YUV
Субдискретизация насыщенности : 4: 2: 0
Битовая глубина : 8 бит
Тип развёртки : Прогрессивная
Метод сжатия : С потерями
Бит/(Пиксели*Кадры) : 0.403
Размер потока : 1, 23 Гбайт (90%)
Библиотека кодирования : XviD 69
Аудио
Идентификатор : 1
Формат : AC-3
Формат/Информация : Audio Coding 3
Коммерческое название : Dolby Digital
Идентификатор кодека : 2000
Продолжительность : 1 ч. 25 м.
Вид битрейта : Постоянный
Битрейт : 224 Кбит/сек
Каналы : 2 канала
Channel layout : L R
Частота : 48, 0 КГц
Частота кадров : 31, 250 кадров/сек (1536 SPF)
Метод сжатия : С потерями
Размер потока : 136 Мбайт (10%)
Выравнивание : Разделение по промежуткам
Продолжительность промежутка : 42 мс. (1, 00 видеокадр)
Время предзагрузки промежутка : 500 мс.
Заголовок : Russian (Dub Киностудия им. М. Горького)
Service kind : Complete Main

Скриншоты для ознакомления



Все одноименные релизы в Клубе
Время раздачи: 24/7 (мультитрекерная раздача) (до появления первых 3-5 скачавших)
 
Уважаемый посетитель, Вы зашли на сайт как незарегистрированный пользователь. Мы рекомендуем Вам зарегистрироваться либо зайти на сайт под своим именем.

Другие новости по теме:

  • Красивые девушки / Beautiful Girls (1996) BDRip
  • Красивые девушки / Beautiful Girls (1996) DVDRip
  • Сборник - Пухлые Девушки / Chubby Girl [JPEG,EPS]
  • Посеяли девушки лён (1956) DVDScreener скачать через торрент бесплатно
  • Могила девушки / The Girls Grave (2014) HDRip
  • Могила девушки / The Girls Grave (2014) HDRip
  • Шаблоны - Девушки снегурочки и рамки [PNG]
  • Wallpapers - Девушки - модели, знаменитости и просто красавицы|от Bega [JPEG, PNG]


  • Информация
    Посетители, находящиеся в группе Гости, не могут оставлять комментарии в данной новости.
    Главная страница | Регистрация | Добавить новость | Новое на сайте Copyright © 2019. bolt.mmix.club All Rights Reserved