Подписывайся на наш канал в Telegram https://t.me/torrentok и получи доступ к торрентам без ограничений!
. bolt.mmix.club
Авторские права
con...@...Показать
Вход на сайт
Логин:
Пароль:
 
Навигация по сайту
Популярные статьи

Торрент трекер | Скачать торрент | Скачать через Торрент | Скачать торрент бесплатно | Скачать торрент без регистрации Фильмы торрент скачать Скромное обаяние буржуазии / Le charme discret de la bourgeoisie (1972) BDRip [H.264 / 1080p-LQ] торрент скачать бесплатно

Скромное обаяние буржуазии / Le charme discret de la bourgeoisie (1972) BDRip [H.264 / 1080p-LQ] торрент скачать бесплатно

Фильмы торрент скачать
Скромное обаяние буржуазии / Le charme discret de la bourgeoisie (1972) BDRip [H.264 / 1080p-LQ]Производство: Франция/Comédie dramatique
Жанр: комедия
Режиссер: Луис Бунюэль

Актеры
Фернандо Рей, Поль Франкер, Дельфин Сейриг, Бюль Ожье, Стефан Одран, Жан-Пьер Кассель, Жюльен Берто, Милена Вукотич, Мария Габриэлла Майон, Клод Пьеплю

Описание

Десять буржуа решили пообедать. Увы, в ресторане подавали только труп патрона. Но больше обеда буржуа заботят поставки кокаина: прежнего дилера — посла США — взяли с поличным и депортировали. Герои нашли нового посла, из Миранды (за которой угадывается фашистская, на тот момент, Бразилия). Этого поставщика преследует подпольщица с заводными собачками, а епископ хочет работать садовником по профсоюзной таксе…


Возраст: 16+ (зрителям, достигшим 16 лет)
Рейтинг MPAA: PG-13 (детям до 13 лет просмотр нежелателен)
Релиз от: Веселый Гном
Продолжительность: 01: 41: 31
Качество видео: BDRip
Перевод: Многоголосый профессиональный
Субтитры: французские
Видео: AVC/H.264, 1804x1080, ~9500 kbps
Аудио 1: AC3, 2 ch, 192 kbps - русский
Аудио 2: AC3, 2 ch, 512 kbps - французский
General
Unique ID : 24903853461796599275239943134318480405 (0x12BC4EC62A73BFF1CCD637D6C424CC15)
Complete name : F: BUFERSБуферBousculer en µLe Charme discret de la bourgeoisie. 1972Le Charme discret de la bourgeoisie°. 1972.mkv
Format : Matroska
Format version : Version 4
File size : 7.24 GiB
Duration : 1 h 41 min
Overall bit rate : 10.2 Mb/s
Movie name : Le Charme discret de la bourgeoisie
Encoded date : UTC 2020-08-23 21: 22: 51
Writing application : mkvmerge v29.0.0 (\'Like It Or Not\') 64-bit
Writing library : libebml v1.3.6 + libmatroska v1.4.9/Lavf58.49.100
Copyright : œuvre de Gnome Jovial
Video
ID : 1
Format : AVC
Format/Info : Advanced Video Codec
Format profile : High@L4.1
Format settings : CABAC/4 Ref Frames
Format settings, CABAC : Yes
Format settings, ReFrames : 4 frames
Codec ID : V_MPEG4/ISO/AVC
Duration : 1 h 41 min
Bit rate : 9 500 kb/s
Width : 1 804 pixels
Height : 1 080 pixels
Display aspect ratio : 5: 3
Frame rate mode : Constant
Frame rate : 24.000 FPS
Color space : YUV
Chroma subsampling : 4: 2: 0
Bit depth : 8 bits
Scan type : Progressive
Bits/(Pixel*Frame) : 0.203
Stream size : 6.74 GiB (93%)
Writing library : x264 core 161 r3018
Encoding settings : cabac=1/ref=4/deblock=1: -3: -1/analyse=0x3: 0x133/me=umh/subme=9/psy=0/mixed_ref=1/me_range=32/chroma_me=1/trellis=2/8x8dct=1/cqm=0/deadzone=21, 11/fast_pskip=0/chroma_qp_offset=0/threads=18/lookahead_threads=3/sliced_threads=0/nr=0/decimate=0/interlaced=0/bluray_compat=0/constrained_intra=0/bframes=7/b_pyramid=2/b_adapt=2/b_bias=0/direct=3/weightb=1/open_gop=0/weightp=2/keyint=240/keyint_min=24/scenecut=40/intra_refresh=0/rc_lookahead=60/rc=2pass/mbtree=1/bitrate=9500/ratetol=1.0/qcomp=0.60/qpmin=10/qpmax=69/qpstep=4/cplxblur=20.0/qblur=0.5/ip_ratio=1.40/aq=1: 1.00
Language : French
Default : Yes
Forced : No
Audio #1
ID : 2
Format : AC-3
Format/Info : Audio Coding 3
Commercial name : Dolby Digital
Codec ID : A_AC3
Duration : 1 h 41 min
Bit rate mode : Constant
Bit rate : 192 kb/s
Channel(s) : 2 channels
Channel layout : L R
Sampling rate : 48.0 kHz
Frame rate : 31.250 FPS (1536 SPF)
Bit depth : 16 bits
Compression mode : Lossy
Stream size : 139 MiB (2%)
Language : Russian
Service kind : Complete Main
Default : No
Forced : No
Audio #2
ID : 3
Format : AC-3
Format/Info : Audio Coding 3
Commercial name : Dolby Digital
Codec ID : A_AC3
Duration : 1 h 41 min
Bit rate mode : Constant
Bit rate : 512 kb/s
Channel(s) : 2 channels
Channel layout : L R
Sampling rate : 48.0 kHz
Frame rate : 31.250 FPS (1536 SPF)
Bit depth : 16 bits
Compression mode : Lossy
Stream size : 372 MiB (5%)
Language : French
Service kind : Complete Main
Default : Yes
Forced : No
Text
ID : 4
Format : UTF-8
Codec ID : S_TEXT/UTF8
Codec ID/Info : UTF-8 Plain Text
Duration : 1 h 36 min
Bit rate : 60 b/s
Count of elements : 1287
Stream size : 42.9 KiB (0%)
Language : French
Default : Yes
Forced : No

Скриншоты для ознакомления



Все одноименные релизы в Клубе
Время раздачи: до появления первых 3-5 скачавших
 
Уважаемый посетитель, Вы зашли на сайт как незарегистрированный пользователь. Мы рекомендуем Вам зарегистрироваться либо зайти на сайт под своим именем.

Другие новости по теме:

  • Скромное обаяние буржуазии / Le charme discret de la bourgeoisie (1972) BDRip [1080p] ATV
  • Скромное обаяние буржуазии / Le charme discret de la bourgeoisie (1972) BDRip


  • Информация
    Посетители, находящиеся в группе Гости, не могут оставлять комментарии в данной новости.
    Главная страница | Регистрация | Добавить новость | Новое на сайте Copyright © 2019. bolt.mmix.club All Rights Reserved