Подписывайся на наш канал в Telegram https://t.me/torrentok и получи доступ к торрентам без ограничений!
. bolt.mmix.club
Авторские права
con...@...Показать
Вход на сайт
Логин:
Пароль:
 
Навигация по сайту
Популярные статьи

Торрент трекер | Скачать торрент | Скачать через Торрент | Скачать торрент бесплатно | Скачать торрент без регистрации Фильмы торрент скачать Мой зять убил мою сестру / Mon beau-frere a tue ma soeur (1986) DVDRip [H.264] торрент скачать бесплатно

Мой зять убил мою сестру / Mon beau-frere a tue ma soeur (1986) DVDRip [H.264] торрент скачать бесплатно

Фильмы торрент скачать
Мой зять убил мою сестру / Mon beau-frere a tue ma soeur (1986) DVDRip [H.264]Производство: Франция/Cinéproduction, France 3 Cinéma
Жанр: Триллер, Комедия
Режиссер: Жак Руффио
Продюсер: Джорджо Сильваньи

Актеры
Мишель Серро, Мишель Пикколи, Жан Карме, Жюльет Бинош, Мильва, Жан-Пьер Биссон, Том Новамбр, Изабель Пети-Жак, Агнес Гарро, Жан-Поль Руссийон

Описание

Очаровательная Эстер совершенно уверена, что ее пропавшую сестру Женевьеву убил собственный муж. Героиня решительно настроена докопаться до истины, а компанию ей в этом составит пара сексуально озабоченных академиков – Этьен и Октав, удачно совмещающие гормональную бурю стареющих ловеласов с криминальным азартом - ведь каждый из них тайно мечтает заполучить милашку Эстер в свои объятья!


Возраст: 16+ (зрителям, достигшим 16 лет)
Релиз от: Охрана (NNMCLUB)
Продолжительность: 01: 33: 48
Качество видео: DVDRip
Перевод: Многоголосый профессиональный
Субтитры: Отсутствуют
Видео: AVC/H.264, 720x432, ~2050 Kbps
Аудио 1: AC3, 2 ch, 192 Kbps, 48.0 kHz – Русский
Аудио 2: AC3, 2 ch, 192 Kbps, 48.0 kHz – Французский
Общее
Уникальный идентификатор : 231342417339520970336376895687166801816 (0xAE0AEDCC22B3208F878500DF2C743798)
Полное имя : D: DownloadsМой зять убил мою сестру. 1986. NNMCLUB.mkv
Формат : Matroska
Версия формата : Version 4/Version 2
Размер файла : 1, 60 Гбайт
Продолжительность : 1 ч. 33 м.
Общий поток : 2436 Кбит/сек
Дата кодирования : UTC 2020-08-26 09: 48: 23
Программа кодирования : mkvmerge v7.9.0 (\'Birds\') 64bit
Библиотека кодирования : libebml v1.3.1 + libmatroska v1.4.2
Видео
Идентификатор : 1
Формат : AVC
Формат/Информация : Advanced Video Codec
Профиль формата : High@L4.1
Настройки формата : CABAC/9 Ref Frames
Параметр CABAC формата : Да
Параметр RefFrames формата : 9 кадров
Идентификатор кодека : V_MPEG4/ISO/AVC
Продолжительность : 1 ч. 33 м.
Битрейт : 2050 Кбит/сек
Ширина : 720 пикселей
Высота : 432 пикселя
Соотношение сторон : 5: 3
Режим частоты кадров : Постоянный
Частота кадров : 25, 000 кадров/сек
Цветовое пространство : YUV
Субдискретизация насыщенности : 4: 2: 0
Битовая глубина : 8 бит
Тип развёртки : Прогрессивная
Бит/(Пиксели*Кадры) : 0.264
Размер потока : 1, 34 Гбайт (84%)
Заголовок : Mon beau-frère a tué ma soeur
Библиотека кодирования : x264 core 146 r2538 121396c
Настройки программы : cabac=1/ref=9/deblock=1: -1: -1/analyse=0x3: 0x113/me=umh/subme=10/psy=1/psy_rd=1.00: 0.10/mixed_ref=1/me_range=32/chroma_me=1/trellis=2/8x8dct=1/cqm=0/deadzone=21, 11/fast_pskip=0/chroma_qp_offset=-3/threads=6/lookahead_threads=1/sliced_threads=0/nr=0/decimate=0/interlaced=0/bluray_compat=0/constrained_intra=0/bframes=8/b_pyramid=2/b_adapt=2/b_bias=0/direct=3/weightb=1/open_gop=0/weightp=2/keyint=250/keyint_min=25/scenecut=40/intra_refresh=0/rc_lookahead=60/rc=2pass/mbtree=1/bitrate=2050/ratetol=1.0/qcomp=0.60/qpmin=0/qpmax=69/qpstep=4/cplxblur=20.0/qblur=0.5/vbv_maxrate=14000/vbv_bufsize=14000/nal_hrd=none/filler=0/ip_ratio=1.40/aq=1: 1.00
Язык : French
Default : Да
Forced : Нет
Аудио #1
Идентификатор : 2
Формат : AC-3
Формат/Информация : Audio Coding 3
Идентификатор кодека : A_AC3
Продолжительность : 1 ч. 33 м.
Вид битрейта : Постоянный
Битрейт : 192 Кбит/сек
Каналы : 2 канала
Расположение каналов : Front: L R
Частота : 48, 0 КГц
Частота кадров : 31, 250 кадров/сек (1536 SPF)
Битовая глубина : 16 бит
Метод сжатия : С потерями
Размер потока : 129 Мбайт (8%)
Заголовок : Многоголосый закадровый
Язык : Russian
ServiceKind/String : Complete Main
Default : Да
Forced : Нет
Аудио #2
Идентификатор : 3
Формат : AC-3
Формат/Информация : Audio Coding 3
Идентификатор кодека : A_AC3
Продолжительность : 1 ч. 33 м.
Вид битрейта : Постоянный
Битрейт : 192 Кбит/сек
Каналы : 2 канала
Расположение каналов : Front: L R
Частота : 48, 0 КГц
Частота кадров : 31, 250 кадров/сек (1536 SPF)
Битовая глубина : 16 бит
Метод сжатия : С потерями
Размер потока : 129 Мбайт (8%)
Заголовок : Французский
Язык : French
ServiceKind/String : Complete Main
Default : Нет
Forced : Нет

Скриншоты для ознакомления




Все одноименные релизы в Клубе
Время раздачи: с 13: 00 до 01: 00 МСК, выходные круглосуточно (до появления первых 3-5 скачавших)
 
Уважаемый посетитель, Вы зашли на сайт как незарегистрированный пользователь. Мы рекомендуем Вам зарегистрироваться либо зайти на сайт под своим именем.

Другие новости по теме:

  • Новые русские сенсации. Зять Тимошенко: Юля, гуд бай! (2014.10.25) SATRip скачать через торрент бесплатно
  • Зять из провинции (1987) TVRip


  • Информация
    Посетители, находящиеся в группе Гости, не могут оставлять комментарии в данной новости.
    Главная страница | Регистрация | Добавить новость | Новое на сайте Copyright © 2019. bolt.mmix.club All Rights Reserved