Подписывайся на наш канал в Telegram https://t.me/torrentok и получи доступ к торрентам без ограничений!
. bolt.mmix.club
Авторские права
con...@...Показать
Вход на сайт
Логин:
Пароль:
 
Навигация по сайту
Популярные статьи

Торрент трекер | Скачать торрент | Скачать через Торрент | Скачать торрент бесплатно | Скачать торрент без регистрации Фильмы торрент скачать Львица / Rogue (2020) BDRemux [H.264 / 1080p] [MVO] торрент скачать бесплатно

Львица / Rogue (2020) BDRemux [H.264 / 1080p] [MVO] торрент скачать бесплатно

Фильмы торрент скачать
Львица / Rogue (2020) BDRemux [H.264 / 1080p] [MVO]Производство: Великобритания, ЮАР/Grindstone Entertainment Group, Hassell Free Production
Жанр: Боевик
Режиссер: М. Дж. Бассетт
Продюсер: Кайл Амброуз, Делон Бэккер, М. Дж. Бассетт

Актеры
Меган Фокс, Джессика Саттон, Филип Уинчестер, Каллиопе Джейн Тейлор, Ли-Энн Либенберг, Брэндон Оре, Грег Крик, Адам Дикон, Тамер Барджаг, Сисанда Хэнна

Описание
На одной из львиных ферм в Африке, где львов содержат, чтобы потом убить и продать по частям на чёрном рынке, происходит ЧП - львице удаётся сбежать и убить нескольких человек. Неподалёку от этого места отряд наёмников во главе с решительной Сэм высвобождает из заложников дочь губернатора и, уходя от многочисленных и хорошо вооружённых преследователей, находит убежище на той самой заброшенной львиной ферме.


Возраст: 18+ Зрителям, достигшим 18 лет
Рейтинг MPAA: R Лицам до 17 обязательно присутствие взрослых
Дата мировой премьеры: 28 августа 2020
Дата российской премьеры: 24 сентября 2020, MEGOGO Distribution
Релиз от: MediaBit
Продолжительность: 01: 45: 59
Качество видео: BDRemux 1080p
Перевод: Профессиональный (многоголосый закадровый), Любительский (многоголосый закадровый)
Субтитры: Русские (Forced), Английские (Full)
Видео: AVC/H.264, 1920x1080, 34.8 Mbps, 23.976 fps
Аудио 1 : AC-3, 6 ch, 448 Kbps | Русский HDRezka Studioненормативная лексика
Аудио 2 : AC-3, 2.0 ch, 256 Kbps | Русский @MUZOBOZ@
Аудио 3 : DTS-HD MA, 6 ch, 3941 Kbps | Английский
General
Unique ID : 13508092300751151247309141955412368049 (0xA29905EB90E2C9A0A9EC25776621AB1)
Complete name : /Volumes/Promise Pegasus/Rogue.BDRemux.1080p.mkv
Format : Matroska
Format version : Version 4
File size : 29.2 GiB
Duration : 1 h 46 min
Overall bit rate mode : Variable
Overall bit rate : 39.5 Mb/s
Movie name : Rogue BDRemux 1080p pk
Encoded date : UTC 2020-08-25 22: 29: 45
Writing application : mkvmerge v49.0.0 (\'Sick Of Losing Soulmates\') 64-bit
Writing library : libebml v1.4.0 + libmatroska v1.6.1
Attachments : Львица.jpg
Video
ID : 1
Format : AVC
Format/Info : Advanced Video Codec
Format profile : High@L4.1
Format settings : CABAC/4 Ref Frames
Format settings, CABAC : Yes
Format settings, Reference frames : 4 frames
Codec ID : V_MPEG4/ISO/AVC
Duration : 1 h 45 min
Bit rate mode : Variable
Bit rate : 34.8 Mb/s
Maximum bit rate : 37.0 Mb/s
Width : 1 920 pixels
Height : 1 080 pixels
Display aspect ratio : 16: 9
Frame rate mode : Constant
Frame rate : 23.976 (24000/1001) FPS
Color space : YUV
Chroma subsampling : 4: 2: 0
Bit depth : 8 bits
Scan type : Progressive
Bits/(Pixel*Frame) : 0.700
Stream size : 25.8 GiB (88%)
Language : English
Default : Yes
Forced : No
Audio #1
ID : 2
Format : AC-3
Format/Info : Audio Coding 3
Commercial name : Dolby Digital
Codec ID : A_AC3
Duration : 1 h 46 min
Bit rate mode : Constant
Bit rate : 448 kb/s
Channel(s) : 6 channels
Channel layout : L R C LFE Ls Rs
Sampling rate : 48.0 kHz
Frame rate : 31.250 FPS (1536 SPF)
Compression mode : Lossy
Stream size : 340 MiB (1%)
Title : Russian MVO HDRezka Studio
Language : Russian
Service kind : Complete Main
Default : Yes
Forced : No
Audio #2
ID : 3
Format : AC-3
Format/Info : Audio Coding 3
Commercial name : Dolby Digital
Codec ID : A_AC3
Duration : 1 h 45 min
Bit rate mode : Constant
Bit rate : 256 kb/s
Channel(s) : 2 channels
Channel layout : L R
Sampling rate : 48.0 kHz
Frame rate : 31.250 FPS (1536 SPF)
Compression mode : Lossy
Stream size : 194 MiB (1%)
Title : Russian MVO @MUZOBOZ@
Language : Russian
Service kind : Complete Main
Default : No
Forced : No
Audio #3
ID : 4
Format : DTS XLL
Format/Info : Digital Theater Systems
Commercial name : DTS-HD Master Audio
Codec ID : A_DTS
Duration : 1 h 45 min
Bit rate mode : Variable
Bit rate : 3 941 kb/s
Channel(s) : 6 channels
Channel layout : C L R Ls Rs LFE
Sampling rate : 48.0 kHz
Frame rate : 93.750 FPS (512 SPF)
Bit depth : 24 bits
Compression mode : Lossless
Stream size : 2.92 GiB (10%)
Title : English Original
Language : English
Default : No
Forced : No
Text #1
ID : 5
Format : UTF-8
Codec ID : S_TEXT/UTF8
Codec ID/Info : UTF-8 Plain Text
Duration : 1 h 37 min
Bit rate : 3 b/s
Count of elements : 37
Stream size : 2.18 KiB (0%)
Title : Russian forced
Language : Russian
Default : Yes
Forced : No
Text #2
ID : 6
Format : UTF-8
Codec ID : S_TEXT/UTF8
Codec ID/Info : UTF-8 Plain Text
Duration : 1 h 38 min
Bit rate : 51 b/s
Count of elements : 1321
Stream size : 37.0 KiB (0%)
Title : English full
Language : English
Default : No
Forced : No
Menu
00: 00: 00.000 : en: Chapter 01
00: 04: 05.495 : en: Chapter 02
00: 10: 55.446 : en: Chapter 03
00: 22: 56.124 : en: Chapter 04
00: 29: 20.884 : en: Chapter 05
00: 35: 27.291 : en: Chapter 06
00: 42: 17.785 : en: Chapter 07
00: 48: 10.095 : en: Chapter 08
00: 55: 41.129 : en: Chapter 09
00: 59: 56.509 : en: Chapter 10
01: 06: 03.167 : en: Chapter 11
01: 11: 49.305 : en: Chapter 12
01: 19: 04.406 : en: Chapter 13
01: 21: 53.450 : en: Chapter 14
01: 29: 26.903 : en: Chapter 15
01: 34: 17.526 : en: Chapter 16

Скриншоты для ознакомления



Все одноименные релизы в Клубе
Время раздачи: 24/7 (круглосуточно) (до появления первых 3-5 скачавших)
 
Уважаемый посетитель, Вы зашли на сайт как незарегистрированный пользователь. Мы рекомендуем Вам зарегистрироваться либо зайти на сайт под своим именем.

Другие новости по теме:

  • Львица / Rogue (2020) BDRip [H.264 / 1080p]
  • Львица / Rogue (2020) BDRip [H.264 / 720p] [MVO]
  • Львица / Rogue (2020) BDRip [H.264 / 1080p-LQ] [MVO]
  • Львица / Rogue (2020) HDRip [MVO]
  • Львица / Rogue (2020) BDRemux [H.264 / 1080p] [MVO]


  • Информация
    Посетители, находящиеся в группе Гости, не могут оставлять комментарии в данной новости.
    Главная страница | Регистрация | Добавить новость | Новое на сайте Copyright © 2019. bolt.mmix.club All Rights Reserved