Подписывайся на наш канал в Telegram https://t.me/torrentok и получи доступ к торрентам без ограничений!
. bolt.mmix.club
Авторские права
con...@...Показать
Вход на сайт
Логин:
Пароль:
 
Навигация по сайту
Популярные статьи

Торрент трекер | Скачать торрент | Скачать через Торрент | Скачать торрент бесплатно | Скачать торрент без регистрации Фильмы торрент скачать Восход Эдерлези / Нимани / A.I. Rising (2018) BDRip [H.264 / 1080p] торрент скачать бесплатно

Восход Эдерлези / Нимани / A.I. Rising (2018) BDRip [H.264 / 1080p] торрент скачать бесплатно

Фильмы торрент скачать
Восход Эдерлези / Нимани / A.I. Rising (2018) BDRip [H.264 / 1080p]Производство: Сербия/Film Center Serbia, Mir Media Group
Жанр: Фантастика, драма, мелодрама
Режиссер: Лазар Бодрожа
Продюсер: Джонатан Инглиш, Александр Протич, Гари Хэмилтон

Актеры
Себастьян Кавацца, Стоя, Маруша Майер, Кирсти Бестерман

Описание
2048 год. Космонавт Милютин, работающий на корпорацию Эдерлези, отправляется в экспедицию к Альфа Центавра в компании андроида Нимани. Во время долгого путешествия он влюбляется в робота, и космонавту начинает казаться, будто женщина реальна.


Возраст: 18+ Зрителям, достигшим 18 лет
Рейтинг MPAA: R Лицам до 17 обязательно присутствие взрослых
Дата мировой премьеры: 25 февраля 2018
Цифровой релиз: 23 июля 2020, Capella Film
Релиз от: NNMClub
Продолжительность: 01: 26: 23
Качество видео: BDRip 1080p
Перевод: 3xМногоголосый закадровый (iTunes, СВ Студия (ненормативная лексика ), HDrezka Studio)
Субтитры: Русские (forced), Английские (Full, SDH)
Видео: AVC/H.264, 1920x720, 8000 Kbps, 23.976 fps
Аудио 1 : AC-3, 6 ch, 384 Kbps | Русский (iTunes)
Аудио 2 : AC-3, 6 ch, 640 Kbps | Русский (СВ Студия)
Аудио 3 : AAC, 2.0 ch, 207 Kbps | Русский (HDrezka Studio)
Аудио 4 : DTS, 6 ch, 1509 Kbps | Английский
General
Unique ID : 335313225336749504119322895724786713951 (0xFC42FA678C2FDAB16BD6A64156E3855F)
Complete name : /Users/imac/HandBrake/A.I.Rising BDRip.1080p.pk.mkv
Format : Matroska
Format version : Version 4
File size : 6.48 GiB
Duration : 1 h 26 min
Overall bit rate : 10.7 Mb/s
Movie name : A.I.Rising BDRip 1080p pk
Encoded date : UTC 2020-08-25 23: 03: 59
Writing application : mkvmerge v49.0.0 (\'Sick Of Losing Soulmates\') 64-bit
Writing library : libebml v1.4.0 + libmatroska v1.6.1
Video
ID : 1
Format : AVC
Format/Info : Advanced Video Codec
Format profile : High@L4.1
Format settings : CABAC/5 Ref Frames
Format settings, CABAC : Yes
Format settings, Reference frames : 5 frames
Codec ID : V_MPEG4/ISO/AVC
Duration : 1 h 26 min
Bit rate : 8 000 kb/s
Width : 1 920 pixels
Height : 720 pixels
Display aspect ratio : 2.667
Frame rate mode : Constant
Frame rate : 23.976 (24000/1001) FPS
Color space : YUV
Chroma subsampling : 4: 2: 0
Bit depth : 8 bits
Scan type : Progressive
Bits/(Pixel*Frame) : 0.241
Stream size : 4.83 GiB (74%)
Writing library : x264 core 157 r2935 545de2f
Encoding settings : cabac=1/ref=5/deblock=1: -3: -2/analyse=0x3: 0x133/me=umh/subme=9/psy=1/psy_rd=1.00: 0.00/mixed_ref=1/me_range=32/chroma_me=1/trellis=2/8x8dct=1/cqm=0/deadzone=6, 6/fast_pskip=1/chroma_qp_offset=-2/threads=22/lookahead_threads=5/sliced_threads=0/nr=0/decimate=0/interlaced=0/bluray_compat=0/constrained_intra=0/bframes=16/b_pyramid=2/b_adapt=2/b_bias=0/direct=3/weightb=1/open_gop=0/weightp=2/keyint=240/keyint_min=24/scenecut=40/intra_refresh=0/rc_lookahead=40/rc=2pass/mbtree=1/bitrate=8000/ratetol=1.0/qcomp=0.80/qpmin=0/qpmax=69/qpstep=4/cplxblur=20.0/qblur=0.5/vbv_maxrate=62500/vbv_bufsize=78125/nal_hrd=none/filler=0/ip_ratio=1.10/aq=1: 0.50
Default : Yes
Forced : No
Color range : Limited
Color primaries : BT.709
Transfer characteristics : BT.709
Matrix coefficients : BT.709
Audio #1
ID : 2
Format : AC-3
Format/Info : Audio Coding 3
Commercial name : Dolby Digital
Codec ID : A_AC3
Duration : 1 h 26 min
Bit rate mode : Constant
Bit rate : 384 kb/s
Channel(s) : 6 channels
Channel layout : L R C LFE Ls Rs
Sampling rate : 48.0 kHz
Frame rate : 31.250 FPS (1536 SPF)
Compression mode : Lossy
Stream size : 237 MiB (4%)
Title : Russian MVO iTunes
Language : Russian
Service kind : Complete Main
Default : Yes
Forced : No
Audio #2
ID : 3
Format : AC-3
Format/Info : Audio Coding 3
Commercial name : Dolby Digital
Codec ID : A_AC3
Duration : 1 h 26 min
Bit rate mode : Constant
Bit rate : 640 kb/s
Channel(s) : 6 channels
Channel layout : L R C LFE Ls Rs
Sampling rate : 48.0 kHz
Frame rate : 31.250 FPS (1536 SPF)
Compression mode : Lossy
Stream size : 395 MiB (6%)
Title : MVO SV Studio
Language : Russian
Service kind : Complete Main
Default : No
Forced : No
Audio #3
ID : 4
Format : AAC LC
Format/Info : Advanced Audio Codec Low Complexity
Codec ID : A_AAC-2
Duration : 1 h 26 min
Bit rate : 207 kb/s
Channel(s) : 2 channels
Channel layout : L R
Sampling rate : 48.0 kHz
Frame rate : 46.875 FPS (1024 SPF)
Compression mode : Lossy
Stream size : 128 MiB (2%)
Title : MVO HDRezka Studio
Language : Russian
Default : No
Forced : No
Audio #4
ID : 5
Format : DTS
Format/Info : Digital Theater Systems
Codec ID : A_DTS
Duration : 1 h 26 min
Bit rate mode : Constant
Bit rate : 1 509 kb/s
Channel(s) : 6 channels
Channel layout : C L R Ls Rs LFE
Sampling rate : 48.0 kHz
Frame rate : 93.750 FPS (512 SPF)
Bit depth : 24 bits
Compression mode : Lossy
Stream size : 932 MiB (14%)
Language : English
Default : No
Forced : No
Text #1
ID : 6
Format : UTF-8
Codec ID : S_TEXT/UTF8
Codec ID/Info : UTF-8 Plain Text
Duration : 1 h 11 min
Bit rate : 3 b/s
Count of elements : 40
Stream size : 1.69 KiB (0%)
Title : Forced
Language : Russian
Default : Yes
Forced : No
Text #2
ID : 7
Format : UTF-8
Codec ID : S_TEXT/UTF8
Codec ID/Info : UTF-8 Plain Text
Duration : 1 h 18 min
Bit rate : 43 b/s
Count of elements : 706
Stream size : 24.9 KiB (0%)
Title : Full
Language : English
Default : No
Forced : No
Text #3
ID : 8
Format : UTF-8
Codec ID : S_TEXT/UTF8
Codec ID/Info : UTF-8 Plain Text
Duration : 1 h 25 min
Bit rate : 43 b/s
Count of elements : 771
Stream size : 27.2 KiB (0%)
Title : SDH
Language : English
Default : No
Forced : No
Menu
00: 00: 00.000 : : Chapter 1
00: 00: 13.222 : : Chapter 2
00: 08: 11.366 : : Chapter 3
00: 16: 04.172 : : Chapter 4
00: 23: 44.340 : : Chapter 5
00: 31: 45.779 : : Chapter 6
00: 39: 50.638 : : Chapter 7
00: 48: 04.382 : : Chapter 8
00: 54: 10.748 : : Chapter 9
01: 00: 12.609 : : Chapter 10
01: 05: 46.443 : : Chapter 11
01: 14: 37.390 : : Chapter 12
01: 23: 00.142 : : Chapter 13

x264 info: frame I: 600 Avg QP: 17.23 size: 107351
x264 info: frame P: 27294 Avg QP: 17.89 size: 55846
x264 info: frame B: 96391 Avg QP: 18.58 size: 37270
x264 info: consecutive B-frames: 3.0% 3.7% 8.0% 8.3% 13.6% 53.0% 5.2% 1.0% 1.2% 0.7% 0.5% 0.5% 0.3% 0.2% 0.2% 0.2% 0.3%
x264 info: mb I I16..4: 18.2% 74.4% 7.4%
x264 info: mb P I16..4: 4.5% 12.2% 0.8% P16..4: 46.4% 14.8% 11.1% 0.1% 0.0% skip: 10.1%
x264 info: mb B I16..4: 0.2% 1.6% 0.0% B16..8: 44.0% 10.6% 2.6% direct: 13.8% skip: 27.2% L0: 48.4% L1: 43.2% BI: 8.4%
x264 info: 8x8 transform intra: 74.7% inter: 65.1%
x264 info: direct mvs spatial: 95.9% temporal: 4.1%
x264 info: coded y, uvDC, uvAC intra: 76.1% 79.1% 60.4% inter: 42.7% 48.4% 17.2%
x264 info: i16 v, h, dc, p: 40% 18% 12% 30%
x264 info: i8 v, h, dc, ddl, ddr, vr, hd, vl, hu: 8% 7% 9% 11% 15% 13% 14% 11% 13%
x264 info: i4 v, h, dc, ddl, ddr, vr, hd, vl, hu: 7% 9% 4% 12% 17% 13% 15% 10% 13%
x264 info: i8c dc, h, v, p: 50% 20% 16% 14%
x264 info: Weighted P-Frames: Y: 19.4% UV: 10.1%
x264 info: ref P L0: 45.2% 7.0% 23.1% 12.0% 10.9% 1.7% 0.1%
x264 info: ref B L0: 68.2% 21.4% 8.4% 2.0%
x264 info: ref B L1: 90.8% 9.2%
x264 info: kb/s: 7996.07

Скриншоты для ознакомления



Все одноименные релизы в Клубе
Время раздачи: 24/7 (круглосуточно) (до появления первых 3-5 скачавших)
 
Уважаемый посетитель, Вы зашли на сайт как незарегистрированный пользователь. Мы рекомендуем Вам зарегистрироваться либо зайти на сайт под своим именем.

Другие новости по теме:

  • Восход Эдерлези / Нимани / A.I. Rising (2018) BDRemux [H.264 / 1080p]
  • Нимани (Восход Эдерлези) / A.I. Rising (2018) BDRip [H.264 / 1080p] [PR]
  • Восход Эдерлези / A.I. Rising (2018) WEBRip [MVO] [AD]
  • Восход Эдерлези / A.I. Rising (2018) WEB-DLRip [MVO]
  • Восход Эдерлези / A.I. Rising (2018) WEB-DL [H.264 / 1080p] [MVO]
  • Восход Эдерлези / A.I. Rising (2018) WEBRip [H.264 / 720p-LQ] [MVO]
  • Восход Эдерлези / A.I. Rising (2018) BDRip [H.264 / 1080p] [MVO]
  • Восход Эдерлези / A.I. Rising (2018) BDRemux [H.264 / 1080p]


  • Информация
    Посетители, находящиеся в группе Гости, не могут оставлять комментарии в данной новости.
    Главная страница | Регистрация | Добавить новость | Новое на сайте Copyright © 2019. bolt.mmix.club All Rights Reserved