Подписывайся на наш канал в Telegram https://t.me/torrentok и получи доступ к торрентам без ограничений!
. bolt.mmix.club
Авторские права
con...@...Показать
Вход на сайт
Логин:
Пароль:
 
Навигация по сайту
Популярные статьи

Торрент трекер | Скачать торрент | Скачать через Торрент | Скачать торрент бесплатно | Скачать торрент без регистрации Фильмы торрент скачать Хэппи-энд (2020) WEB-DL [H.264 / 1080p-LQ] торрент скачать бесплатно

Хэппи-энд (2020) WEB-DL [H.264 / 1080p-LQ] торрент скачать бесплатно

Фильмы торрент скачать
Хэппи-энд (2020) WEB-DL [H.264 / 1080p-LQ]Производство: Россия, Таиланд, Вита Актива, 2Д Целлулоид
Жанр: Комедия
Режиссер: Евгений Шелякин
Продюсер: Василий Соловьев, Юлия Мишкинене, Юрий Храпов

Актеры
Михаил Гомиашвили, Евгения Дмитриева, Владимир Мишуков, Чарай Муэнпрайун, Роза Хайруллина, Евгений Сангаджиев, Алина Астровская, Полина Пушкарук, Анастасия Сомова, Патрида Пьекеу

Описание

Загадочный мужчина приходит в себя на пляже в Таиланде. Он не помнит ни своего имени, ни причины, по которой оказался так далеко от дома. Говорит он только по-русски и отличается крайне скверным характером, однако быстро осваивается на новом месте, налаживает связи и даже организует авантюрный бизнес. И вроде все в его жизни снова благополучно, но один вопрос остается неотвеченным: для чего же он все-таки прилетел на другой конец света?

Возраст: 12+ (зрителям, достигшим 12 лет)
Дата российской премьеры: 1 августа 2020 , СППР
Продолжительность: 01: 40: 21
Качество видео: WEB-DL
Перевод: Не требуется (русский) iTunes
Субтитры: Отсутсвуют
Видео: AVC/H.264, 1920x804, 4792 Kbps
Аудио: АС3, 6 ch, 48 kHz, 384 Kbps | РусскийОбщее
Уникальный идентификатор : 246405521767296297474912380188815339262 (0xB95FFA2F3EB08BB3970B8B5155392EFE)
Полное имя : D: Heppi.end.2020.WEB-DL.1080p.ELEKTRI4KA.UNIONGANG.mkv
Формат : Matroska
Версия формата : Version 4
Размер файла : 3, 63 Гбайт
Продолжительность : 1 ч. 40 м.
Общий поток : 5177 Кбит/сек
Название фильма : .ELEKTRI4KA.UNIONGANG.
Дата кодирования : UTC 2020-08-26 20: 17: 19
Программа кодирования : mkvmerge v8.3.0 (\'Over the Horizon\') 64bit
Библиотека кодирования : libebml v1.3.1 + libmatroska v1.4.2
Видео
Идентификатор : 1
Формат : AVC
Формат/Информация : Advanced Video Codec
Профиль формата : High@L4
Настройки формата : CABAC/5 Ref Frames
Параметр CABAC формата : Да
Параметр RefFrames формата : 5 кадров
Идентификатор кодека : V_MPEG4/ISO/AVC
Продолжительность : 1 ч. 40 м.
Битрейт : 4792 Кбит/сек
Ширина : 1920 пикселей
Высота : 804 пикселя
Соотношение сторон : 2, 40: 1
Режим частоты кадров : Постоянный
Частота кадров : 24, 000 кадра/сек
Цветовое пространство : YUV
Субдискретизация насыщенности : 4: 2: 0
Битовая глубина : 8 бит
Тип развёртки : Прогрессивная
Бит/(Пиксели*Кадры) : 0.129
Размер потока : 3, 36 Гбайт (93%)
Заголовок : .ELEKTRI4KA.UNIONGANG.
Язык : English
Default : Да
Forced : Нет
Цветовой диапазон : Limited
Основные цвета : BT.709
Характеристики трансфера : BT.709
Коэффициенты матрицы : BT.709
Аудио
Идентификатор : 2
Формат : AC-3
Формат/Информация : Audio Coding 3
Коммерческое название : Dolby Digital
Идентификатор кодека : A_AC3
Продолжительность : 1 ч. 40 м.
Вид битрейта : Постоянный
Битрейт : 384 Кбит/сек
Каналы : 6 каналов
ChannelLayout : L R C LFE Ls Rs
Частота : 48, 0 КГц
Частота кадров : 31, 250 кадров/сек (1536 SPF)
Битовая глубина : 16 бит
Метод сжатия : С потерями
Задержка видео : -42 мс.
Размер потока : 276 Мбайт (7%)
Заголовок : iTunes
Язык : Russian
ServiceKind/String : Complete Main
Default : Да
Forced : Нет
Меню
00: 00: 00.000 : en: ГÐава 1
00: 06: 08.493 : en: ГÐава 2
00: 12: 30.124 : en: ГÐава 3
00: 21: 16.316 : en: ГÐава 4
00: 31: 06.698 : en: ГÐава 5
00: 37: 10.019 : en: ГÐава 6
00: 44: 58.320 : en: ГÐава 7
00: 49: 52.989 : en: ГÐава 8
00: 57: 14.347 : en: ГÐава 9
01: 03: 18.210 : en: ГÐава 10
01: 11: 57.062 : en: ГÐава 11
01: 19: 38.565 : en: ГÐава 12
01: 27: 46.010 : en: ГÐава 13
01: 32: 55.110 : en: ГÐава 14

Скриншоты для ознакомления



Все одноименные релизы в Клубе
Время раздачи: 24/7 (круглосуточно)
 
Уважаемый посетитель, Вы зашли на сайт как незарегистрированный пользователь. Мы рекомендуем Вам зарегистрироваться либо зайти на сайт под своим именем.

Другие новости по теме:

  • Хэппи-энд / Happy End (2017) WEBRip [MVO] [AD]
  • Хэппи-энд / Happy End (2017) BDRip [H.264 / 720p]
  • Хэппи-энд (2020) WEB-DLRip


  • Информация
    Посетители, находящиеся в группе Гости, не могут оставлять комментарии в данной новости.
    Главная страница | Регистрация | Добавить новость | Новое на сайте Copyright © 2019. bolt.mmix.club All Rights Reserved