Подписывайся на наш канал в Telegram https://t.me/torrentok и получи доступ к торрентам без ограничений!
. bolt.mmix.club
Авторские права
con...@...Показать
Вход на сайт
Логин:
Пароль:
 
Навигация по сайту
Популярные статьи

Торрент трекер | Скачать торрент | Скачать через Торрент | Скачать торрент бесплатно | Скачать торрент без регистрации Фильмы торрент скачать Люцифер / Lucifer (2020) WEBRip (сезон 5, серии 1-8 из 16) OmskBird (обновляемая) [AD] торрент скачать бесплатно

Люцифер / Lucifer (2020) WEBRip (сезон 5, серии 1-8 из 16) OmskBird (обновляемая) [AD] торрент скачать бесплатно

Фильмы торрент скачать
Люцифер / Lucifer (2020) WEBRip (сезон 5, серии 1-8 из 16) OmskBird (обновляемая) [AD]Производство: США/Aggressive Mediocrity, DC Entertainment, Jerry Bruckheimer Television, Vertigo, Warner Bros. Television
Жанр: фэнтези, драма, криминал
Режиссер: Нэйтан Хоуп, Луис Шоу Милито, Эгил Эгилссон

Актеры
Том Эллис, Лорен Джерман, Кевин Алехандро, Лесли-Энн Брандт, Скарлетт Эстевес, Рэйчел Харрис, Д.Б. Вудсайд, Эйми Гарсиа, Триша Хелфер, Том Уэллинг и другие.

Описание

По мотивам одноимённой серии комиксов Нила Геймана и Сэма Кита. Заскучавший и несчастный повелитель преисподней Люцифер Морнингстар оставил свой престол и отправился в современный Лос-Анджелес, где основал ночной клуб Lux. Очаровательный, харизматичный и дьявольски привлекательный Люцифер наслаждается отдыхом — вином, женщинами и музыкой, пока красивая поп-звезда не оказывается убитой на пороге его клуба.


Возраст: 18+ (зрителям, достигшим 18 лет. запрещено для детей)
Релиз от: OmskBird
Продолжительность: ~00: 43: 00 серия
Качество видео: WEBRip
Перевод: Многоголосый профессиональный (OmskBird)
Реклама: Присутствуют видео, аудио вставки рекламы
Видео: XviD, 720x400 (16: 9), 23.976 fps, ~1574 kbps, 0.228 bit/pixel
Аудио: AC3, 2 ch, 192 kbps
Общее
Полное имя : G: Lucifer.S05.WEBRip.OmskBirdLucifer.S05E01.WEBRip.OmskBird.avi
Формат : AVI
Формат/Информация : Audio Video Interleave
Размер файла : 654 Мбайт
Продолжительность : 51 м. 30 с.
Общий поток : 1776 Кбит/сек
Программа кодирования : VirtualDubMod 1.5.10.3 (build 2550/release)
Библиотека кодирования : VirtualDubMod build 2550/release
Видео
Идентификатор : 0
Формат : MPEG-4 Visual
Профиль формата : Simple@L5
Настройки формата : BVOP1
Параметр BVOP формата : 1
Параметр QPel формата : Нет
Параметр GMC формата : Без точки перехода
Параметр матрицы формата : Default (MPEG)
Идентификатор кодека : XVID
Идентификатор кодека/Подсказка : XviD
Продолжительность : 51 м. 30 с.
Битрейт : 1574 Кбит/сек
Ширина : 720 пикселей
Высота : 400 пикселей
Соотношение сторон : 16: 9
Частота кадров : 23, 976 (24000/1001) кадра/сек
Цветовое пространство : YUV
Субдискретизация насыщенности : 4: 2: 0
Битовая глубина : 8 бит
Тип развёртки : Прогрессивная
Метод сжатия : С потерями
Бит/(Пиксели*Кадры) : 0.228
Размер потока : 580 Мбайт (89%)
Библиотека кодирования : XviD 67
Аудио
Идентификатор : 1
Формат : AC-3
Формат/Информация : Audio Coding 3
Коммерческое название : Dolby Digital
Идентификатор кодека : 2000
Продолжительность : 51 м. 30 с.
Вид битрейта : Постоянный
Битрейт : 192 Кбит/сек
Каналы : 2 канала
ChannelLayout : L R
Частота : 48, 0 КГц
Частота кадров : 31, 250 кадров/сек (1536 SPF)
Метод сжатия : С потерями
Размер потока : 70, 7 Мбайт (11%)
Выравнивание : Разделение по промежуткам
Продолжительность промежутка : 42 мс. (1, 00 видеокадр)
Время предзагрузки промежутка : 500 мс.
ServiceKind/String : Complete Main

Скриншоты для ознакомления



Все одноименные релизы в Клубе
Время раздачи: с 08: 00 до 23: 30 (до появления первых 3-5 скачавших) (до появления первых 3-5 скачавших)
 
Уважаемый посетитель, Вы зашли на сайт как незарегистрированный пользователь. Мы рекомендуем Вам зарегистрироваться либо зайти на сайт под своим именем.

Другие новости по теме:

  • Люцифер / Lucifer (2020) WEBRip [H.264 / 1080p-LQ](сезон 5, серии 1-3 из 16) ViruseProject (обновляемая)
  • Люцифер / Lucifer (2020) WEBRip (сезон 5, серии 1-3 из 16) ViruseProject (обновляемая)
  • Люцифер / Lucifer (2020) WEBRip [H.264 / 1080p-LQ] (сезон 5, серии 1-8 из 16) OmskBird (обновляемая) [AD]
  • Люцифер / Lucifer (2020) WEBRip [H.264 / 720p-LQ] (сезон 5, серии 1-8 из 16) OmskBird (обновляемая) [AD]
  • Люцифер / Lucifer (2020) WEB-DL [H.264 / 720p-LQ] (сезон 5, серии 1 из 16) LostFilm (обновляемая)
  • Люцифер / Lucifer (2020) WEB-DLRip [H.264 / 1080p-LQ] (сезон 5, серии 1-8 из 16) VSI Moscow (обновляемая)
  • Люцифер / Lucifer (2015) HDTV [H.264 / 720p-LQ] (сезон 1, серия 1 из ) [EN / RU, EN Sub] скачать через торрент бесплатно
  • Люцифер / Lucifer (2015) HDTV [H.264 / 1080p] (сезон 1, серии 1 из ) NewStudio (обновляемая) скачать через торрент бесплатно


  • Информация
    Посетители, находящиеся в группе Гости, не могут оставлять комментарии в данной новости.
    Главная страница | Регистрация | Добавить новость | Новое на сайте Copyright © 2019. bolt.mmix.club All Rights Reserved