Подписывайся на наш канал в Telegram https://t.me/torrentok и получи доступ к торрентам без ограничений!
. bolt.mmix.club
Авторские права
con...@...Показать
Вход на сайт
Логин:
Пароль:
 
Навигация по сайту
Популярные статьи

Торрент трекер | Скачать торрент | Скачать через Торрент | Скачать торрент бесплатно | Скачать торрент без регистрации Фильмы торрент скачать Люцифер / Lucifer (2020) WEBRip [H.264 / 1080p-LQ] (сезон 5, серии 1-8 из 16) OmskBird (обновляемая) [AD] торрент скачать бесплатно

Люцифер / Lucifer (2020) WEBRip [H.264 / 1080p-LQ] (сезон 5, серии 1-8 из 16) OmskBird (обновляемая) [AD] торрент скачать бесплатно

Фильмы торрент скачать
Люцифер / Lucifer (2020) WEBRip [H.264 / 1080p-LQ] (сезон 5, серии 1-8 из 16) OmskBird (обновляемая) [AD]Производство: США/Aggressive Mediocrity, DC Entertainment, Jerry Bruckheimer Television, Vertigo, Warner Bros. Television
Жанр: фэнтези, драма, криминал
Режиссер: Нэйтан Хоуп, Луис Шоу Милито, Эгил Эгилссон

Актеры
Том Эллис, Лорен Джерман, Кевин Алехандро, Лесли-Энн Брандт, Скарлетт Эстевес, Рэйчел Харрис, Д.Б. Вудсайд, Эйми Гарсиа, Триша Хелфер, Том Уэллинг и другие.

Описание

По мотивам одноимённой серии комиксов Нила Геймана и Сэма Кита. Заскучавший и несчастный повелитель преисподней Люцифер Морнингстар оставил свой престол и отправился в современный Лос-Анджелес, где основал ночной клуб Lux. Очаровательный, харизматичный и дьявольски привлекательный Люцифер наслаждается отдыхом — вином, женщинами и музыкой, пока красивая поп-звезда не оказывается убитой на пороге его клуба.


Возраст: 18+ (зрителям, достигшим 18 лет. запрещено для детей)
Релиз от: OmskBird
Продолжительность: ~00: 43: 00 серия
Качество видео: WEBRip
Перевод: Многоголосый профессиональный (OmskBird)
Реклама: присутствуют видео, аудио вставки рекламы
Видео: AVC/H.264, 1920x1080, ~4999 kbps
Аудио: AC3, 2 ch, 192 kbps
Общее
Уникальный идентификатор : 80205215769354100959191033764627492738 (0x3C56F671D81A147F2E2EFFC8B0D62F82)
Полное имя : G: Lucifer.S05.1080p.WEBRip.OmskBirdLucifer.S05E01.1080p.WEBRip.OmskBird.mkv
Формат : Matroska
Версия формата : Version 4
Размер файла : 1, 87 Гбайт
Продолжительность : 51 м. 30 с.
Режим общего битрейта : Постоянный
Общий поток : 5192 Кбит/сек
Дата кодирования : UTC 2020-08-22 12: 49: 48
Программа кодирования : mkvmerge v46.0.0 (\'No Deeper Escape\') 64-bit
Библиотека кодирования : libebml v1.3.10 + libmatroska v1.5.2
Видео
Идентификатор : 1
Формат : AVC
Формат/Информация : Advanced Video Codec
Профиль формата : Main@L4
Настройки формата : CABAC/1 Ref Frames
Параметр CABAC формата : Да
Параметр RefFrames формата : 1 кадр
Параметр GOP формата : M=1, N=25
Идентификатор кодека : V_MPEG4/ISO/AVC
Продолжительность : 51 м. 30 с.
Вид битрейта : Постоянный
Битрейт : 4999 Кбит/сек
Ширина : 1920 пикселей
Высота : 1080 пикселей
Соотношение сторон : 16: 9
Режим частоты кадров : Постоянный
Частота кадров : 23, 976 (24000/1001) кадра/сек
Цветовое пространство : YUV
Субдискретизация насыщенности : 4: 2: 0
Битовая глубина : 8 бит
Тип развёртки : Прогрессивная
Бит/(Пиксели*Кадры) : 0.101
Размер потока : 1, 80 Гбайт (96%)
Язык : English
Default : Да
Forced : Нет
Аудио
Идентификатор : 2
Формат : AC-3
Формат/Информация : Audio Coding 3
Коммерческое название : Dolby Digital
Идентификатор кодека : A_AC3
Продолжительность : 51 м. 30 с.
Вид битрейта : Постоянный
Битрейт : 192 Кбит/сек
Каналы : 2 канала
ChannelLayout : L R
Частота : 48, 0 КГц
Частота кадров : 31, 250 кадров/сек (1536 SPF)
Метод сжатия : С потерями
Размер потока : 70, 7 Мбайт (4%)
Заголовок : OmskBird
Язык : Russian
ServiceKind/String : Complete Main
Default : Да
Forced : Нет

Скриншоты для ознакомления



Все одноименные релизы в Клубе
Время раздачи: с 08: 00 до 23: 30 (до появления первых 3-5 скачавших) (до появления первых 3-5 скачавших)
 
Уважаемый посетитель, Вы зашли на сайт как незарегистрированный пользователь. Мы рекомендуем Вам зарегистрироваться либо зайти на сайт под своим именем.

Другие новости по теме:

  • Люцифер / Lucifer (2020) WEBRip [H.264 / 1080p-LQ](сезон 5, серии 1-3 из 16) ViruseProject (обновляемая)
  • Люцифер / Lucifer (2020) WEBRip (сезон 5, серии 1-3 из 16) ViruseProject (обновляемая)
  • Люцифер / Lucifer (2020) WEBRip [H.264 / 720p-LQ] (сезон 5, серии 1-8 из 16) OmskBird (обновляемая) [AD]
  • Люцифер / Lucifer (2020) WEBRip (сезон 5, серии 1-8 из 16) OmskBird (обновляемая) [AD]
  • Люцифер / Lucifer (2020) WEB-DL [H.264 / 720p-LQ] (сезон 5, серии 1 из 16) LostFilm (обновляемая)
  • Люцифер / Lucifer (2020) WEB-DLRip [H.264 / 1080p-LQ] (сезон 5, серии 1-8 из 16) VSI Moscow (обновляемая)
  • Люцифер / Lucifer (2015) HDTV [H.264 / 720p-LQ] (сезон 1, серия 1 из ) [EN / RU, EN Sub] скачать через торрент бесплатно
  • Люцифер / Lucifer (2015) HDTV [H.264 / 1080p] (сезон 1, серии 1 из ) NewStudio (обновляемая) скачать через торрент бесплатно


  • Информация
    Посетители, находящиеся в группе Гости, не могут оставлять комментарии в данной новости.
    Главная страница | Регистрация | Добавить новость | Новое на сайте Copyright © 2019. bolt.mmix.club All Rights Reserved