Подписывайся на наш канал в Telegram https://t.me/torrentok и получи доступ к торрентам без ограничений!
. bolt.mmix.club
Авторские права
con...@...Показать
Вход на сайт
Логин:
Пароль:
 
Навигация по сайту
Популярные статьи

Торрент трекер | Скачать торрент | Скачать через Торрент | Скачать торрент бесплатно | Скачать торрент без регистрации Фильмы торрент скачать Люцифер / Lucifer (2020) WEBRip [H.264 / 1080p-LQ](сезон 5, серии 1-3 из 16) ViruseProject (обновляемая) торрент скачать бесплатно

Люцифер / Lucifer (2020) WEBRip [H.264 / 1080p-LQ](сезон 5, серии 1-3 из 16) ViruseProject (обновляемая) торрент скачать бесплатно

Фильмы торрент скачать
Люцифер / Lucifer (2020) WEBRip [H.264 / 1080p-LQ](сезон 5, серии 1-3 из 16) ViruseProject (обновляемая)Производство: США
Жанр: фэнтези, драма, криминал
Режиссер: Нэйтан Хоуп, Луис Шоу Милито, Карен Гавиола

Актеры
Лорен Джерман, Том Эллис, Кевин Алехандро, Лесли-Энн Брандт, Скарлетт Эстевес, Рэйчел Харрис, Д.Б. Вудсайд, Эйми Гарсиа, Триша Хелфер, Том Уэллинг и др.

Описание

Что делает дьявол, когда ему становится скучно в аду? Конечно же, открывает модный клуб в Лос-Анджелесе и, разумеется, постоянно вмешивается в дела людей. Например, становится напарником детектива из убойного отдела и помогает расследовать преступления.
Пережив множество приключений, драм, взлётов и падений, Люцифер Морнингстар эмоционально повзрослел и совершенно изменился. Теперь он готов вернуться обратно в преисподнюю и выполнять свой долг надзирателя за проклятыми душами. Или нет?
Смотрите 5 сезон любимого сериала и узнайте ответ на этот и многие другие вопросы.


Релиз от: ViruseProject
Продолжительность: ~00: 52: 00 серия
Качество видео: WEBRip 1080p
Перевод: Двуголосый профессиональный (ViruseProject)
Субтитры: Русские
Реклама: присутствуют видео, аудио вставки рекламы
Видео: AVC/H.264, 1920 x 1080 (16: 9), ~3500 Kbps
Аудио Rus: AC3, 2 ch, 192 Kbps
Аудио Eng: AAC, 2 ch, 192 Kbps
Общее
Уникальный идентификатор : 176751760423189600850269166939271208353 (0x84F9269BA127F7D6B0151B027E921DA1)
Полное имя : Lucifer.S05E01.1080p.WEBRip.ViruseProject.mkv
Формат : Matroska
Версия формата : Version 4
Размер файла : 1, 38 Гбайт
Продолжительность : 52 м. 13 с.
Общий поток : 3 787 Кбит/сек
Дата кодирования : UTC 2020-08-22 15: 36: 54
Программа кодирования : mkvmerge v8.3.0 (\'Over the Horizon\') 64bit
Библиотека кодирования : libebml v1.3.1 + libmatroska v1.4.2
Видео
Идентификатор : 1
Формат : AVC
Формат/Информация : Advanced Video Codec
Профиль формата : High@L4.2
Настройки формата : CABAC/4 Ref Frames
Параметр CABAC формата : Да
Параметр RefFrames формата : 4 кадра
Идентификатор кодека : V_MPEG4/ISO/AVC
Продолжительность : 52 м. 13 с.
Битрейт : 3 403 Кбит/сек
Ширина : 1 920 пикселей
Высота : 1 080 пикселей
Соотношение сторон : 16: 9
Режим частоты кадров : Постоянный
Частота кадров : 23, 976 (24000/1001) кадра/сек
Цветовое пространство : YUV
Субдискретизация насыщенности : 4: 2: 0
Битовая глубина : 8 бит
Тип развёртки : Прогрессивная
Бит/(Пиксели*Кадры) : 0.068
Размер потока : 1, 24 Гбайт (90%)
Язык : English
Default : Да
Forced : Нет
Цветовой диапазон : Limited
Основные цвета : BT.709
Характеристики трансфера : BT.709
Коэффициенты матрицы : BT.709
Аудио #1
Идентификатор : 2
Формат : AC-3
Формат/Информация : Audio Coding 3
Коммерческое название : Dolby Digital
Идентификатор кодека : A_AC3
Продолжительность : 52 м. 13 с.
Вид битрейта : Постоянный
Битрейт : 192 Кбит/сек
Каналы : 2 канала
Channel layout : L R
Частота : 48, 0 КГц
Частота кадров : 31, 250 кадров/сек (1536 SPF)
Метод сжатия : С потерями
Размер потока : 71, 7 Мбайт (5%)
Заголовок : ViruseProject
Язык : Russian
Service kind : Complete Main
Default : Да
Forced : Нет
Аудио #2
Идентификатор : 3
Формат : AAC LC
Формат/Информация : Advanced Audio Codec Low Complexity
Идентификатор кодека : A_AAC-2
Продолжительность : 52 м. 13 с.
Битрейт : 192 Кбит/сек
Каналы : 2 канала
Channel layout : L R
Частота : 48, 0 КГц
Частота кадров : 46, 875 кадров/сек (1024 SPF)
Метод сжатия : С потерями
Размер потока : 70, 7 Мбайт (5%)
Язык : English
Default : Нет
Forced : Нет
Текст
Идентификатор : 4
Формат : UTF-8
Идентификатор кодека : S_TEXT/UTF8
Идентификатор кодека/Информация : UTF-8 Plain Text
Продолжительность : 50 м. 36 с.
Битрейт : 107 бит/сек
Count of elements : 826
Размер потока : 39, 8 Кбайт (0%)
Язык : Russian
Default : Нет
Forced : Нет

Скриншоты для ознакомления



Все одноименные релизы в Клубе
Время раздачи: с 10: 00 до 24: 00 (до появления первых 3-5 скачавших)
 
Уважаемый посетитель, Вы зашли на сайт как незарегистрированный пользователь. Мы рекомендуем Вам зарегистрироваться либо зайти на сайт под своим именем.

Другие новости по теме:

  • Люцифер / Lucifer (2020) WEBRip (сезон 5, серии 1-3 из 16) ViruseProject (обновляемая)
  • Люцифер / Lucifer (2020) WEBRip [H.264 / 1080p-LQ] (сезон 5, серии 1-8 из 16) OmskBird (обновляемая) [AD]
  • Люцифер / Lucifer (2020) WEBRip [H.264 / 720p-LQ] (сезон 5, серии 1-8 из 16) OmskBird (обновляемая) [AD]
  • Люцифер / Lucifer (2020) WEBRip (сезон 5, серии 1-8 из 16) OmskBird (обновляемая) [AD]
  • Люцифер / Lucifer (2020) WEB-DL [H.264 / 720p-LQ] (сезон 5, серии 1 из 16) LostFilm (обновляемая)
  • Люцифер / Lucifer (2020) WEB-DLRip [H.264 / 1080p-LQ] (сезон 5, серии 1-8 из 16) VSI Moscow (обновляемая)
  • Люцифер / Lucifer (2015) HDTV [H.264 / 720p-LQ] (сезон 1, серия 1 из ) [EN / RU, EN Sub] скачать через торрент бесплатно
  • Люцифер / Lucifer (2015) HDTV [H.264 / 1080p] (сезон 1, серии 1 из ) NewStudio (обновляемая) скачать через торрент бесплатно


  • Информация
    Посетители, находящиеся в группе Гости, не могут оставлять комментарии в данной новости.
    Главная страница | Регистрация | Добавить новость | Новое на сайте Copyright © 2019. bolt.mmix.club All Rights Reserved