Подписывайся на наш канал в Telegram https://t.me/torrentok и получи доступ к торрентам без ограничений!
. bolt.mmix.club
Авторские права
con...@...Показать
Вход на сайт
Логин:
Пароль:
 
Навигация по сайту
Популярные статьи

Торрент трекер | Скачать торрент | Скачать через Торрент | Скачать торрент бесплатно | Скачать торрент без регистрации Фильмы торрент скачать Убийства Вальгаллы / The Valhalla Murders (2019 – 2020) WEB-DLRip (сезон 1, серии 1-8 из 8) ViruseProject торрент скачать бесплатно

Убийства Вальгаллы / The Valhalla Murders (2019 – 2020) WEB-DLRip (сезон 1, серии 1-8 из 8) ViruseProject торрент скачать бесплатно

Фильмы торрент скачать
Убийства Вальгаллы / The Valhalla Murders (2019 – 2020) WEB-DLRip (сезон 1, серии 1-8 из 8) ViruseProjectПроизводство: Исландия
Жанр: триллер, драма, криминал, детектив
Режиссер: Thordur Palsson, Тора Хилмарсдоттир, Давид Оскар Олафссон

Актеры
Aldís Amah Hamilton, Bergur Ebbi Benediktsson, Эдда Бьёргвинсдоттир, Gunnar Bersi Björnsson, Адндис Хрёдн и д.р.

Описание

Убийства Вальгаллы - расскажет о криминалисте, которого отправляют из Копенгагена в родную Исландию для поимки первого в истории страны серийного убийцы. Преступник оказывается каким-то образом связан с местом, где 35 лет назад совершались некие страшные злодеяния.


Дата мировой премьеры: 26 декабря 2019
Релиз от: ViruseProject
Продолжительность: ~00: 50: 00
Качество видео: WEB-DLRip
Перевод: Двуголосый профессиональный (ViruseProject)
Субтитры: Русские
Реклама: есть
Видео: XviD, 720 x 400 (16: 9), ~1800 Kbps
Аудио Rus: MP3, 2 ch, 128 Kbps
Аудио Dut: MP3, 2 ch, 128 Kbps
Общее
Полное имя : F: ОЗВУЧКА888-ЗАЛИВ-888The.Valhalla.Murders.S01.ViruseProjectThe.Valhalla.Murders.S01.400p.ViruseProjectThe.Valhalla.Murders.S01E01.400p.WEB-DLRip.ViruseProject.avi
Формат : AVI
Формат/Информация : Audio Video Interleave
Размер файла : 689 Мбайт
Продолжительность : 46 м. 33 с.
Режим общего битрейта : Переменный
Общий поток : 2 070 Кбит/сек
Программа кодирования : VirtualDubMod 1.5.10.2 (build 2540/release)
Библиотека кодирования : VirtualDubMod build 2540/release
Видео
Идентификатор : 0
Формат : MPEG-4 Visual
Профиль формата : Advanced Simple@L5
Настройки формата : BVOP1
Параметр BVOP формата : 1
Параметр QPel формата : Нет
Параметр GMC формата : Без точки перехода
Параметр матрицы формата : Default (MPEG)
Идентификатор кодека : XVID
Идентификатор кодека/Подсказка : XviD
Продолжительность : 46 м. 33 с.
Битрейт : 1 799 Кбит/сек
Ширина : 720 пикселей
Высота : 400 пикселей
Соотношение сторон : 16: 9
Частота кадров : 25, 000 кадров/сек
Цветовое пространство : YUV
Субдискретизация насыщенности : 4: 2: 0
Битовая глубина : 8 бит
Тип развёртки : Прогрессивная
Метод сжатия : С потерями
Бит/(Пиксели*Кадры) : 0.250
Размер потока : 599 Мбайт (87%)
Библиотека кодирования : XviD 67
Аудио #1
Идентификатор : 1
Формат : MPEG Audio
Версия формата : Version 1
Профиль формата : Layer 3
Настройки формата : Joint stereo/MS Stereo
Идентификатор кодека : 55
Идентификатор кодека/Подсказка : MP3
Продолжительность : 46 м. 32 с.
Вид битрейта : Переменный
Битрейт : 128 Кбит/сек
Каналы : 2 канала
Частота : 48, 0 КГц
Частота кадров : 41, 667 кадра/сек (1152 SPF)
Метод сжатия : С потерями
Размер потока : 42, 6 Мбайт (6%)
Выравнивание : Соединение по промежуткам
Продолжительность промежутка : 40 мс. (1, 00 видеокадр)
Время предзагрузки промежутка : 504 мс.
Аудио #2
Идентификатор : 2
Формат : MPEG Audio
Версия формата : Version 1
Профиль формата : Layer 3
Настройки формата : Joint stereo/MS Stereo
Идентификатор кодека : 55
Идентификатор кодека/Подсказка : MP3
Продолжительность : 46 м. 33 с.
Вид битрейта : Постоянный
Битрейт : 128 Кбит/сек
Каналы : 2 канала
Частота : 48, 0 КГц
Метод сжатия : С потерями
Размер потока : 42, 6 Мбайт (6%)
Выравнивание : Разделение по промежуткам
Продолжительность промежутка : 40 мс. (1, 00 видеокадр)
Время предзагрузки промежутка : 500 мс.
Библиотека кодирования : LAME3.100

Скриншоты для ознакомления



Все одноименные релизы в Клубе
Время раздачи: с 10: 00 до 24: 00 (до появления первых 3-5 скачавших)
 
Уважаемый посетитель, Вы зашли на сайт как незарегистрированный пользователь. Мы рекомендуем Вам зарегистрироваться либо зайти на сайт под своим именем.

Другие новости по теме:

  • Убийства Вальгаллы / The Valhalla Murders (2019–2020) WEB-DLRip [H.264 / 1080p-LQ](сезон 1, серии 1-8 из 8) ViruseProject [AD]


  • Информация
    Посетители, находящиеся в группе Гости, не могут оставлять комментарии в данной новости.
    Главная страница | Регистрация | Добавить новость | Новое на сайте Copyright © 2019. bolt.mmix.club All Rights Reserved