Подписывайся на наш канал в Telegram https://t.me/torrentok и получи доступ к торрентам без ограничений!
. bolt.mmix.club
Авторские права
con...@...Показать
Вход на сайт
Логин:
Пароль:
 
Навигация по сайту
Популярные статьи

Торрент трекер | Скачать торрент | Скачать через Торрент | Скачать торрент бесплатно | Скачать торрент без регистрации Фильмы торрент скачать Лихач (2020) WEB-DL [H.264 / 720p-LQ] (сезон 1, серии 1 из 20) (обновляемая) торрент скачать бесплатно

Лихач (2020) WEB-DL [H.264 / 720p-LQ] (сезон 1, серии 1 из 20) (обновляемая) торрент скачать бесплатно

Фильмы торрент скачать
Лихач (2020) WEB-DL [H.264 / 720p-LQ] (сезон 1, серии 1 из 20) (обновляемая)Производство: Россия/Киностудия КИТ
Жанр: детектив, приключения
Режиссер: Андрей Коршунов, Максим Демченко

Актеры
Никита Панфилов, Артур Мкртчян, Мария Сандлер, Иван Васильев, Игорь Качаев, Денис Пьянов, Ольга Павлюкова, Игорь Головин, Ульяна Никулина, Александра Камчатова и др.

Описание

37-летний Сергей Сотников – заместитель начальника уголовного розыска Сочи, в котором родился и прожил всю жизнь. Всему городу Сотников знаком под прозвищем Лихач, которое он получил за свой суровый нрав.Упрямый, справедливый, уверенный в себе Лихач смог за годы работы добиться главного – установить контроль над преступностью. Сотников давно бы мог возглавить уголовный розыск и даже стать начальником полиции, но кабинетные должности не для него.

Возраст: 16+ (зрителям, достигшим 16 лет)
Дата российской премьеры: 24 августа 2020 НТВ
Релиз от: ExKinoRay
Продолжительность: ~ 00: 49: 00 серия
Качество видео: WEB-DL
Видео: AVC/H.264, 1280x720 (16: 9), ~3500 Kbps
Аудио: AC3, 2 ch, 192 Kbps
Общее
Уникальный идентификатор : 254481369295406678124036165517522246789 (0xBF7354358213BEA88796CAC657381C85)
Полное имя : F: СЕРИАЛЫЛИХАЧLihach.S01.2020.WEB-DLRip.(720p).ExKinoRayLihach.s01e01.2020.WEB-DLRip.(720p).ExKinoRay.mkv
Формат : Matroska
Версия формата : Version 2
Размер файла : 1, 28 Гбайт
Продолжительность : 49 м. 35 с.
Общий поток : 3685 Кбит/сек
Дата кодирования : UTC 2020-08-24 20: 30: 38
Программа кодирования : mkvmerge v7.8.0 (\'River Man\') 32bit built on Apr 3 2015 12: 11: 22
Библиотека кодирования : libebml v1.3.1 + libmatroska v1.4.2
Видео
Идентификатор : 1
Формат : AVC
Формат/Информация : Advanced Video Codec
Профиль формата : High@L4.1
Настройки формата : CABAC/9 Ref Frames
Параметр CABAC формата : Да
Параметр RefFrames формата : 9 кадров
Идентификатор кодека : V_MPEG4/ISO/AVC
Продолжительность : 49 м. 35 с.
Битрейт : 3500 Кбит/сек
Ширина : 1280 пикселей
Высота : 720 пикселей
Соотношение сторон : 16: 9
Режим частоты кадров : Постоянный
Частота кадров : 25, 000 кадров/сек
Цветовое пространство : YUV
Субдискретизация насыщенности : 4: 2: 0
Битовая глубина : 8 бит
Тип развёртки : Прогрессивная
Бит/(Пиксели*Кадры) : 0.152
Размер потока : 1, 18 Гбайт (93%)
Библиотека кодирования : x264 core 146 r2538 121396c
Настройки программы : cabac=1/ref=9/deblock=1: -3: -3/analyse=0x3: 0x113/me=umh/subme=11/psy=1/psy_rd=1.00: 0.20/mixed_ref=1/me_range=32/chroma_me=1/trellis=2/8x8dct=1/cqm=0/deadzone=21, 11/fast_pskip=1/chroma_qp_offset=-3/threads=24/lookahead_threads=10/sliced_threads=0/nr=0/decimate=0/interlaced=0/bluray_compat=0/constrained_intra=0/bframes=10/b_pyramid=2/b_adapt=2/b_bias=0/direct=3/weightb=1/open_gop=0/weightp=2/keyint=250/keyint_min=25/scenecut=40/intra_refresh=0/rc_lookahead=60/rc=2pass/mbtree=1/bitrate=3500/ratetol=1.0/qcomp=0.60/qpmin=0/qpmax=69/qpstep=4/cplxblur=20.0/qblur=0.5/vbv_maxrate=14000/vbv_bufsize=14000/nal_hrd=none/filler=0/ip_ratio=1.40/aq=3: 1.40
Default : Да
Forced : Нет
Цветовой диапазон : Limited
Основные цвета : BT.709
Характеристики трансфера : BT.709
Коэффициенты матрицы : BT.709
Аудио
Идентификатор : 2
Формат : AC-3
Формат/Информация : Audio Coding 3
Коммерческое название : Dolby Digital
Идентификатор кодека : A_AC3
Продолжительность : 49 м. 35 с.
Вид битрейта : Постоянный
Битрейт : 192 Кбит/сек
Каналы : 2 канала
ChannelLayout : L R
Частота : 48, 0 КГц
Частота кадров : 31, 250 кадров/сек (1536 SPF)
Битовая глубина : 16 бит
Метод сжатия : С потерями
Размер потока : 68, 1 Мбайт (5%)
ServiceKind/String : Complete Main
Default : Да
Forced : Нет

Скриншоты для ознакомления



Все одноименные релизы в Клубе
Время раздачи: 24/7 (до появления первых 3-5 скачавших)
 
Уважаемый посетитель, Вы зашли на сайт как незарегистрированный пользователь. Мы рекомендуем Вам зарегистрироваться либо зайти на сайт под своим именем.

Другие новости по теме:

  • Лихач (2020) WEB-DL [H.264 / 1080p-LQ] (сезон 1, серии 1-2 из 20) (обновляемая)


  • Информация
    Посетители, находящиеся в группе Гости, не могут оставлять комментарии в данной новости.
    Главная страница | Регистрация | Добавить новость | Новое на сайте Copyright © 2019. bolt.mmix.club All Rights Reserved