Подписывайся на наш канал в Telegram https://t.me/torrentok и получи доступ к торрентам без ограничений!
. bolt.mmix.club
Авторские права
con...@...Показать
Вход на сайт
Логин:
Пароль:
 
Навигация по сайту
Популярные статьи

Торрент трекер | Скачать торрент | Скачать через Торрент | Скачать торрент бесплатно | Скачать торрент без регистрации Фильмы торрент скачать Инопланетный код / Alien Code (2017) WEB-DL [H.264 / 1080-LQ] торрент скачать бесплатно

Инопланетный код / Alien Code (2017) WEB-DL [H.264 / 1080-LQ] торрент скачать бесплатно

Фильмы торрент скачать
Инопланетный код / Alien Code (2017) WEB-DL [H.264 / 1080-LQ]Производство: США/The Men Productions
Жанр: Фантастика, Триллер, Детектив
Режиссер: Майкл Дж. Куни
Продюсер: Джон П. Агирр, Khiow Hui Lim, Bianca Chen,

Актеры
Кайл Галлнер, Азура Скай, Мэри МакКормак, Ричард Шифф, Грэхэм Хэмилтон, Аарон Бер, Neil Arnote, Noah Scott, Kevin Anderson, Тейт Бёрчмор

Описание

Алекс работает специалистом по взлому кодов и шифров в американской компании. Однажды, вернувшись домой, он обнаруживает в гостиной своё собственное бездыханное тело. А рядом флешку с запиской: Посмотри меня. Алекс открывает загадочный USB-накопитель и начинает просмотр. На экране он видит самого себя из будущего и слышит рассказ о том, что удалось засечь сигналы, передаваемые неизвестным космическим спутником, в них было зашифровано сообщение о существовании инопланетных существ. Эта информация полностью меняет сознание Алекса. Вскоре за ним начинают охоту неизвестные.


Продолжительность: 01: 41: 24
Качество видео: WEB-DL
Перевод: Дублированный (iTunes)
Субтитры: Отсутствуют
Видео: AVC, 1920x1080, 4095 Kbps
Аудио 1: AC3, 6 ch, 384 Kbps, русский
Аудио 2: AC3, 6 ch, 640 Kbps, английский
Общее
Уникальный идентификатор : 68936181099902167648550925553645680008 (0x33DCA0239963862CFB0312F5703C7588)
Полное имя : ALIEN_CODE_2018_WEB-DL_1080p_AMAZON-BLUEBIRD.mkv
Формат : Matroska
Версия формата : Version 4
Размер файла : 3, 63 Гбайт
Продолжительность : 1 ч. 41 м.
Режим общего битрейта : Переменный
Общий поток : 5122 Кбит/сек
Название фильма : ALIEN_CODE_2018_WEB-DL_1080p_AMAZON-BLUEBIRD
Дата кодирования : UTC 2020-08-23 18: 47: 21
Программа кодирования : mkvmerge v43.0.0 (\'The Quartermaster\') 64-bit
Библиотека кодирования : libebml v1.3.10 + libmatroska v1.5.2
Обложка : Yes
Attachments : cover.png
Видео
Идентификатор : 1
Формат : AVC
Формат/Информация : Advanced Video Codec
Профиль формата : High@L4
Настройки формата : CABAC/4 Ref Frames
Параметр CABAC формата : Да
Параметр RefFrames формата : 4 кадра
Идентификатор кодека : V_MPEG4/ISO/AVC
Продолжительность : 1 ч. 41 м.
Вид битрейта : Переменный
Битрейт : 4095 Кбит/сек
Максимальный битрейт : 15, 0 Мбит/сек
Ширина : 1920 пикселей
Высота : 1080 пикселей
Соотношение сторон : 16: 9
Режим частоты кадров : Постоянный
Частота кадров : 23, 976 (24000/1001) кадра/сек
Цветовое пространство : YUV
Субдискретизация насыщенности : 4: 2: 0
Битовая глубина : 8 бит
Тип развёртки : Прогрессивная
Бит/(Пиксели*Кадры) : 0.082
Размер потока : 2, 90 Гбайт (80%)
Заголовок : ALIEN_CODE_2018_WEB-DL_1080p_AMAZON-BLUEBIRD
Default : Да
Forced : Нет
Цветовой диапазон : Limited
Основные цвета : BT.709
Характеристики трансфера : BT.709
Коэффициенты матрицы : BT.709
Аудио #1
Идентификатор : 2
Формат : AC-3
Формат/Информация : Audio Coding 3
Коммерческое название : Dolby Digital
Идентификатор кодека : A_AC3
Продолжительность : 1 ч. 41 м.
Вид битрейта : Постоянный
Битрейт : 384 Кбит/сек
Каналы : 6 каналов
ChannelLayout : L R C LFE Ls Rs
Частота : 48, 0 КГц
Частота кадров : 31, 250 кадров/сек (1536 SPF)
Метод сжатия : С потерями
Размер потока : 279 Мбайт (7%)
Заголовок : MVO DD 5.1 @ 384 kbps (iTunes)
Язык : Russian
ServiceKind/String : Complete Main
Default : Нет
Forced : Нет
Аудио #2
Идентификатор : 3
Формат : E-AC-3
Формат/Информация : Enhanced AC-3
Коммерческое название : Dolby Digital Plus
Идентификатор кодека : A_EAC3
Продолжительность : 1 ч. 41 м.
Вид битрейта : Постоянный
Битрейт : 640 Кбит/сек
Каналы : 6 каналов
ChannelLayout : L R C LFE Ls Rs
Частота : 48, 0 КГц
Частота кадров : 31, 250 кадров/сек (1536 SPF)
Метод сжатия : С потерями
Размер потока : 464 Мбайт (12%)
Заголовок : ORIGINAL DD+ 5.1 @ 640 kbps (Amazon)
Язык : English
ServiceKind/String : Complete Main
Default : Нет
Forced : Нет

Скриншоты для ознакомления


Все одноименные релизы в Клубе
Время раздачи: 24/7 (мультитрекер)
 
Уважаемый посетитель, Вы зашли на сайт как незарегистрированный пользователь. Мы рекомендуем Вам зарегистрироваться либо зайти на сайт под своим именем.

Другие новости по теме:

  • Инопланетный код (Инопланетный шифр) / The Men (Alien Code) (2017) WEB-DLRip [H.264 / 1080р-LQ] [MVO] [AD]
  • Инопланетный хищник / Alien Predator (2018) WEB-DLRip [MVO] [AD]


  • Информация
    Посетители, находящиеся в группе Гости, не могут оставлять комментарии в данной новости.
    Главная страница | Регистрация | Добавить новость | Новое на сайте Copyright © 2019. bolt.mmix.club All Rights Reserved