Подписывайся на наш канал в Telegram https://t.me/torrentok и получи доступ к торрентам без ограничений!
. bolt.mmix.club
Авторские права
con...@...Показать
Вход на сайт
Логин:
Пароль:
 
Навигация по сайту
Популярные статьи

Торрент трекер | Скачать торрент | Скачать через Торрент | Скачать торрент бесплатно | Скачать торрент без регистрации Фильмы торрент скачать Злоупотребление (Лотерея) / La riffa / The Raffle (1991) WEB-DL [H.264 / 1080p] [AVO] торрент скачать бесплатно

Злоупотребление (Лотерея) / La riffa / The Raffle (1991) WEB-DL [H.264 / 1080p] [AVO] торрент скачать бесплатно

Фильмы торрент скачать
Злоупотребление (Лотерея) / La riffa / The Raffle (1991) WEB-DL [H.264 / 1080p] [AVO]Производство: Италия/Produttori Associati
Жанр: Драма, мелодрама, комедия
Режиссер: Франческо Лаудадио

Актеры
Моника Беллуччи, Джулио Скарпати, Массимо Гини, Елена Кантароне, Карла Кассола, Сандра Коллодел, Паоло Бусири Вичи Д’Арчевия, Паоло Де Вита, Роберто Делла Каза, Барбара Кристина Энгельхардт

Описание

Франческа, молодая итальянская мещанка, которая только что потеряла мужа, обязана продавать все имущество, в том числе одежду и драгоценности, чтобы оплатить долги мужа и заботиться о дочке ...


Возраст: 18+ (зрителям, достигшим 18 лет. запрещено для детей)
Продолжительность: 01: 25: 02
Качество видео: WEB-DL
Перевод: Одноголосый профессиональный (Студия Альтера Парс)
Субтитры: Английские (SDH)
Видео: AVC/H.264, 1792х1080, ~10 Mbps
Аудио 1: AC3, 2 ch, 192 Kbps, русский (AVO)
Аудио 2: E-AC3, 2 ch, 224 Kbps, итальянский (оригинал)
Общее
Уникальный идентификатор : 195133795713218326822388480616444222513 (0x92CD66EB9BD14D28B9BF0FB8F6205C31)
Полное имя : E: DownloadsLa.Riffa.1991.WEB-DL.1080p.mkv
Формат : Matroska
Версия формата : Version 4
Размер файла : 6, 03 Гбайт
Продолжительность : 1 ч. 25 м.
Общий поток : 10, 2 Мбит/сек
Дата кодирования : UTC 2020-08-23 21: 54: 14
Программа кодирования : mkvmerge v7.7.0 (\'Six Voices\') 32bit built on Feb 28 2015 23: 23: 00
Библиотека кодирования : libebml v1.3.1 + libmatroska v1.4.2
Видео
Идентификатор : 1
Формат : AVC
Формат/Информация : Advanced Video Codec
Профиль формата : High@L4
Настройки формата : CABAC/4 Ref Frames
Параметр CABAC формата : Да
Параметр RefFrames формата : 4 кадра
Идентификатор кодека : V_MPEG4/ISO/AVC
Продолжительность : 1 ч. 25 м.
Вид битрейта : Постоянный
Битрейт : 10 000 Кбит/сек
Ширина : 1 792 пикселя
Высота : 1 080 пикселей
Соотношение сторон : 5: 3
Режим частоты кадров : Постоянный
Частота кадров : 25, 000 кадров/сек
Цветовое пространство : YUV
Субдискретизация насыщенности : 4: 2: 0
Битовая глубина : 8 бит
Тип развёртки : Прогрессивная
Бит/(Пиксели*Кадры) : 0.207
Размер потока : 5, 78 Гбайт (96%)
Язык : Italian
Default : Да
Forced : Нет
Цветовой диапазон : Limited
Основные цвета : BT.709
Характеристики трансфера : BT.709
Коэффициенты матрицы : BT.709
Аудио #1
Идентификатор : 2
Формат : AC-3
Формат/Информация : Audio Coding 3
Коммерческое название : Dolby Digital
Идентификатор кодека : A_AC3
Продолжительность : 1 ч. 25 м.
Вид битрейта : Постоянный
Битрейт : 192 Кбит/сек
Каналы : 2 канала
Channel layout : L R
Частота : 48, 0 КГц
Частота кадров : 31, 250 кадров/сек (1536 SPF)
Метод сжатия : С потерями
Размер потока : 117 Мбайт (2%)
Язык : Russian
Service kind : Complete Main
Default : Да
Forced : Нет
Аудио #2
Идентификатор : 3
Формат : E-AC-3
Формат/Информация : Enhanced AC-3
Коммерческое название : Dolby Digital Plus
Идентификатор кодека : A_EAC3
Продолжительность : 1 ч. 25 м.
Вид битрейта : Постоянный
Битрейт : 224 Кбит/сек
Каналы : 2 канала
Channel layout : L R
Частота : 48, 0 КГц
Частота кадров : 31, 250 кадров/сек (1536 SPF)
Метод сжатия : С потерями
Размер потока : 136 Мбайт (2%)
Язык : Italian
Service kind : Complete Main
Default : Нет
Forced : Нет
Текст #1
Идентификатор : 4
Формат : UTF-8
Идентификатор кодека : S_TEXT/UTF8
Идентификатор кодека/Информация : UTF-8 Plain Text
Продолжительность : 1 ч. 23 м.
Битрейт : 55 бит/сек
Count of elements : 964
Размер потока : 33, 9 Кбайт (0%)
Заголовок : US
Язык : English
Default : Нет
Forced : Нет
Текст #2
Идентификатор : 5
Формат : UTF-8
Идентификатор кодека : S_TEXT/UTF8
Идентификатор кодека/Информация : UTF-8 Plain Text
Продолжительность : 1 ч. 23 м.
Битрейт : 55 бит/сек
Count of elements : 964
Размер потока : 33, 9 Кбайт (0%)
Заголовок : US SDH
Язык : English
Default : Нет
Forced : Нет
Текст #3
Идентификатор : 6
Формат : UTF-8
Идентификатор кодека : S_TEXT/UTF8
Идентификатор кодека/Информация : UTF-8 Plain Text
Продолжительность : 1 ч. 23 м.
Битрейт : 55 бит/сек
Count of elements : 964
Размер потока : 33, 9 Кбайт (0%)
Заголовок : UK SDH
Язык : English
Default : Нет
Forced : Нет
Текст #4
Идентификатор : 7
Формат : UTF-8
Идентификатор кодека : S_TEXT/UTF8
Идентификатор кодека/Информация : UTF-8 Plain Text
Продолжительность : 1 ч. 23 м.
Битрейт : 55 бит/сек
Count of elements : 964
Размер потока : 33, 9 Кбайт (0%)
Заголовок : UK
Язык : English
Default : Нет
Forced : Нет

Скриншоты для ознакомления



Все одноименные релизы в Клубе
Время раздачи: 24/7 (мультитрекерная разадча)
 
Уважаемый посетитель, Вы зашли на сайт как незарегистрированный пользователь. Мы рекомендуем Вам зарегистрироваться либо зайти на сайт под своим именем.

Другие новости по теме:

  • Злоупотребление (Лотерея) / La Riffa / The Raffle (1991) DVDRip [H.264] [AVO]


  • Информация
    Посетители, находящиеся в группе Гости, не могут оставлять комментарии в данной новости.
    Главная страница | Регистрация | Добавить новость | Новое на сайте Copyright © 2019. bolt.mmix.club All Rights Reserved