Подписывайся на наш канал в Telegram https://t.me/torrentok и получи доступ к торрентам без ограничений!
. bolt.mmix.club
Авторские права
con...@...Показать
Вход на сайт
Логин:
Пароль:
 
Навигация по сайту
Популярные статьи

Торрент трекер | Скачать торрент | Скачать через Торрент | Скачать торрент бесплатно | Скачать торрент без регистрации Фильмы торрент скачать Львица / Rogue (2020) BDRip [H.264 / 1080p] торрент скачать бесплатно

Львица / Rogue (2020) BDRip [H.264 / 1080p] торрент скачать бесплатно

Фильмы торрент скачать
Львица / Rogue (2020) BDRip [H.264 / 1080p]Производство: Великобритания, ЮАР, Grindstone Entertainment Group, Hassell Free Production, Mannequin Pictures
Жанр: Боевик
Режиссер: М. Дж. Бассетт

Актеры
Меган Фокс, Джессика Саттон, Филип Уинчестер, Каллиопе Джейн Тейлор, Ли-Энн Либенберг, Брэндон Оре, Грег Крик, Адам Дикон, Тамер Барджаг, Сисанда Хэнна

Описание

На одной из львиных ферм в Африке, где львов содержат, чтобы потом убить и продать по частям на чёрном рынке, происходит ЧП - львице удаётся сбежать и убить нескольких человек. Неподалёку от этого места отряд наёмников во главе с решительной Сэм высвобождает из заложников дочь губернатора и, уходя от многочисленных и хорошо вооружённых преследователей, находит убежище на той самой заброшенной львиной ферме.


Возраст: 18+ (зрителям, достигшим 18 лет. запрещено для детей)
Рейтинг MPAA: R (лицам до 17 лет обязательно присутствие взрослого)
Релиз от: V_ad, HDReactor
Продолжительность: 01: 45: 59
Качество видео: BDRip
Перевод: Многоголосый профессиональный
Субтитры: Русские (форсированные), английские
Видео: AVC/H.264, 1920x802, ~13.6 Mbps
Аудио #1: Русский, AC3, 6 ch, 448 Kbps - HDRezka
Аудио #2: Русский, AC3, 2 ch, 192 Kbps - @MUZOBOZ@
Аудио #3: Английский, AC3, 6 ch, 448 Kbps
Полное имя : I: Rogue.2020.BDRip1080p.HDReactor.mkv
Формат : Matroska
Версия формата : Version 2
Размер файла : 10, 8 Гбайт
Продолжительность : 1 ч. 45 м.
Общий поток : 14, 6 Мбит/сек
Название фильма : ~V ad~
Дата кодирования : UTC 2020-08-25 08: 37: 29
Программа кодирования : mkvmerge v6.9.1 (\'Blue Panther\') 32bit built on Apr 18 2014 18: 15: 44
Библиотека кодирования : libebml v1.3.0 + libmatroska v1.4.1
Обложка : Yes
Attachments : cover.jpg
Видео
Идентификатор : 1
Формат : AVC
Формат/Информация : Advanced Video Codec
Профиль формата : High@L4.1
Настройки формата : CABAC/5 Ref Frames
Параметр CABAC формата : Да
Параметр RefFrames формата : 5 кадров
Идентификатор кодека : V_MPEG4/ISO/AVC
Продолжительность : 1 ч. 45 м.
Битрейт : 13, 6 Мбит/сек
Ширина : 1 920 пикселей
Высота : 802 пикселя
Соотношение сторон : 2, 40: 1
Режим частоты кадров : Постоянный
Частота кадров : 23, 976 (24000/1001) кадра/сек
Цветовое пространство : YUV
Субдискретизация насыщенности : 4: 2: 0
Битовая глубина : 8 бит
Тип развёртки : Прогрессивная
Бит/(Пиксели*Кадры) : 0.367
Размер потока : 9, 82 Гбайт (91%)
Заголовок : ~V~
Библиотека кодирования : x264 core 161 r3018 db0d417
Настройки программы : cabac=1/ref=5/deblock=1: -3: -3/analyse=0x3: 0x133/me=umh/subme=11/psy=1/psy_rd=1.00: 0.10/mixed_ref=1/me_range=32/chroma_me=1/trellis=2/8x8dct=1/cqm=0/deadzone=21, 11/fast_pskip=0/chroma_qp_offset=-3/threads=12/lookahead_threads=1/sliced_threads=0/nr=0/decimate=0/interlaced=0/bluray_compat=0/constrained_intra=0/bframes=10/b_pyramid=2/b_adapt=2/b_bias=0/direct=3/weightb=1/open_gop=0/weightp=2/keyint=240/keyint_min=23/scenecut=40/intra_refresh=0/rc=2pass/mbtree=0/bitrate=13555/ratetol=1.0/qcomp=0.65/qpmin=0/qpmax=69/qpstep=4/cplxblur=20.0/qblur=0.5/ip_ratio=1.18/pb_ratio=1.20/aq=1: 0.90
Язык : Английский
Default : Да
Forced : Нет
Duration_Source : General_Duration
Аудио #1
Идентификатор : 2
Формат : AC-3
Формат/Информация : Audio Coding 3
Коммерческое название : Dolby Digital
Идентификатор кодека : A_AC3
Продолжительность : 1 ч. 45 м.
Вид битрейта : Постоянный
Битрейт : 448 Кбит/сек
Каналы : 6 каналов
Channel layout : L R C LFE Ls Rs
Частота : 48, 0 КГц
Частота кадров : 31, 250 кадров/сек (1536 SPF)
Метод сжатия : С потерями
Размер потока : 340 Мбайт (3%)
Заголовок : MVO HDREZKA
Язык : Русский
Service kind : Complete Main
Default : Да
Forced : Нет
Duration_Source : General_Duration
Аудио #2
Идентификатор : 3
Формат : AC-3
Формат/Информация : Audio Coding 3
Коммерческое название : Dolby Digital
Идентификатор кодека : A_AC3
Продолжительность : 1 ч. 45 м.
Вид битрейта : Постоянный
Битрейт : 192 Кбит/сек
Каналы : 2 канала
Channel layout : L R
Частота : 48, 0 КГц
Частота кадров : 31, 250 кадров/сек (1536 SPF)
Метод сжатия : С потерями
Размер потока : 146 Мбайт (1%)
Заголовок : MVO @MUZOBOZ@
Язык : Русский
Service kind : Complete Main
Default : Нет
Forced : Нет
Duration_Source : General_Duration
Аудио #3
Идентификатор : 4
Формат : AC-3
Формат/Информация : Audio Coding 3
Коммерческое название : Dolby Digital
Идентификатор кодека : A_AC3
Продолжительность : 1 ч. 45 м.
Вид битрейта : Постоянный
Битрейт : 448 Кбит/сек
Каналы : 6 каналов
Channel layout : L R C LFE Ls Rs
Частота : 48, 0 КГц
Частота кадров : 31, 250 кадров/сек (1536 SPF)
Метод сжатия : С потерями
Размер потока : 340 Мбайт (3%)
Язык : Английский
Service kind : Complete Main
Default : Нет
Forced : Нет
Duration_Source : General_Duration
Текст #1
Идентификатор : 5
Формат : UTF-8
Идентификатор кодека : S_TEXT/UTF8
Идентификатор кодека/Информация : UTF-8 Plain Text
Заголовок : Forced
Язык : Русский
Default : Да
Forced : Да
Текст #2
Идентификатор : 6
Формат : UTF-8
Идентификатор кодека : S_TEXT/UTF8
Идентификатор кодека/Информация : UTF-8 Plain Text
Заголовок : Full
Язык : Английский
Default : Нет
Forced : Нет

Скриншоты для ознакомления





Все одноименные релизы в Клубе
Время раздачи: 24/7 (до появления первых 3-5 скачавших)
 
Уважаемый посетитель, Вы зашли на сайт как незарегистрированный пользователь. Мы рекомендуем Вам зарегистрироваться либо зайти на сайт под своим именем.

Другие новости по теме:

  • Львица / Rogue (2020) BDRip [H.264 / 720p] [MVO]
  • Львица / Rogue (2020) BDRemux [H.264 / 1080p] [MVO]
  • Львица / Rogue (2020) HDRip [MVO]
  • Львица / Rogue (2020) BDRemux [H.264 / 1080p] [MVO]


  • Информация
    Посетители, находящиеся в группе Гости, не могут оставлять комментарии в данной новости.
    Главная страница | Регистрация | Добавить новость | Новое на сайте Copyright © 2019. bolt.mmix.club All Rights Reserved