Подписывайся на наш канал в Telegram https://t.me/torrentok и получи доступ к торрентам без ограничений!
. bolt.mmix.club
Авторские права
con...@...Показать
Вход на сайт
Логин:
Пароль:
 
Навигация по сайту
Популярные статьи

Торрент трекер | Скачать торрент | Скачать через Торрент | Скачать торрент бесплатно | Скачать торрент без регистрации Фильмы торрент скачать Продавец четырех времен года / The Merchant of Four Seasons / Handler der vier Jahreszeiten (1971) BDRip [H.264 / 720p] [Criterion Collection] торрент скачать бесплатно

Продавец четырех времен года / The Merchant of Four Seasons / Handler der vier Jahreszeiten (1971) BDRip [H.264 / 720p] [Criterion Collection] торрент скачать бесплатно

Фильмы торрент скачать
Продавец четырех времен года / The Merchant of Four Seasons / Handler der vier Jahreszeiten (1971) BDRip [H.264 / 720p] [Criterion Collection]Производство: Германия (ФРГ)/Janus Films, Tango Film
Жанр: Драма
Режиссер: Райнер Вернер Фассбиндер

Актеры
Ганс Хиршмюллер, Ирм Херманн, Ханна Шигулла, Клаус Лёвич, Карл Шейдт, Андреа Шобер, Густи Крайссль, Ингрид Кавен, Курт Рааб, Хайде Симон

Описание

Трагедия одиночки, оказавшегося лишним в обществе всеобщего благоденствия Эпохи Экономического чуда. Ханс Эпп несколько лет провел вдали от родины в иностранном легионе, и вот вернулся назад. Уж лучше бы тебе не возвращаться! — злобно шипит мать, встречая сына на пороге дома. И Ханс уходит, устраивается на работу в полицию, обзаводится семьей, потом становится продавцом овощей в разъездном магазинчике. Жену он не любит, она платит ему тем же. Возлюбленная Ханса слишком горда, чтобы связать жизнь с уличным торговцем. Одна из стычек с женой завершается тяжелейшим инфарктом. Разочаровавшись в жизни, герой решается на самоубийство. Исподволь, но настойчиво каждый участник действия подталкивает его к этому решению. И только сестра Анна пытается оказать ему моральную поддержку, но не может предотвратить его роковую кончину.


Возраст: 16+ (зрителям, достигшим 16 лет)
Релиз от: NNMClub
Продолжительность: 01: 28: 45
Качество видео: BDRip 720p (Heisenberg )
Перевод: Профессиональный (двухголосый, закадровый), любительский (одноголосый, закадровый)
Субтитры: Русские, английские
Видео: AVC/H.264, 986x720, (4: 3), 9000 Kbps, 23.976 fps
Аудио 1: AC3, 2 ch, 192 Kbps - Русский (DVO)
Аудио 2: AC3, 1 ch, 192 Kbps - Русский (AVO, О. Воротилин)
Аудио 3: AC3, 2 ch, 192 Kbps - Русский (AVO, Женский голос)
Аудио 4: AC3, 1 ch, 192 Kbps - Немецкий (оригинал)
Аудио 5: AC3, 1 ch, 192 Kbps - Английский (Commentary by Wim Wenders)General
Unique ID : 131969728839140143551365884405538205343 (0x634871FC0FA0E7E1D8EA19E2AC91AE9F)
Complete name : F: Handler.der.vier.Jahreszeiten.1971.BDRip.720p.Criterion.Collection.NNMClub.mkv
Format : Matroska
Format version : Version 4
File size : 6.18 GiB
Duration : 1 h 28 min
Overall bit rate : 9 961 kb/s
Movie name : Продавец четырех времен года/The Merchant of Four Seasons/Händler der vier Jahreszeiten (1971) Criterion Collection
Encoded date : UTC 2020-08-25 13: 04: 41
Writing application : mkvmerge v49.0.0 (\'Sick Of Losing Soulmates\') 64-bit
Writing library : libebml v1.4.0 + libmatroska v1.6.1
Cover : Yes
Attachments : Cover.jpg/x264.log
Video
ID : 1
Format : AVC
Format/Info : Advanced Video Codec
Format profile : High@L4.1
Format settings : CABAC/11 Ref Frames
Format settings, CABAC : Yes
Format settings, Reference : 11 frames
Codec ID : V_MPEG4/ISO/AVC
Duration : 1 h 28 min
Bit rate : 9 000 kb/s
Width : 986 pixels
Height : 720 pixels
Display aspect ratio : 4: 3
Frame rate mode : Constant
Frame rate : 23.976 (24000/1001) FPS
Color space : YUV
Chroma subsampling : 4: 2: 0
Bit depth : 8 bits
Scan type : Progressive
Bits/(Pixel*Frame) : 0.529
Stream size : 5.58 GiB (90%)
Title : Продавец четырех времен года/The Merchant of Four Seasons/Händler der vier Jahreszeiten (1971) Criterion Collection
Writing library : x264 core 161 r3018 db0d417
Encoding settings : cabac=1/ref=11/deblock=1: -3: -3/analyse=0x3: 0x133/me=esa/subme=11/psy=1/psy_rd=1.00: 0.00/mixed_ref=1/me_range=32/chroma_me=1/trellis=2/8x8dct=1/cqm=0/deadzone=21, 11/fast_pskip=0/chroma_qp_offset=-2/threads=12/lookahead_threads=3/sliced_threads=0/nr=0/decimate=0/interlaced=0/bluray_compat=0/constrained_intra=0/bframes=16/b_pyramid=2/b_adapt=2/b_bias=0/direct=3/weightb=1/open_gop=0/weightp=2/keyint=240/keyint_min=23/scenecut=40/intra_refresh=0/rc_lookahead=60/rc=2pass/mbtree=0/bitrate=9000/ratetol=1.0/qcomp=0.60/qpmin=0/qpmax=69/qpstep=4/cplxblur=20.0/qblur=0.5/vbv_maxrate=50000/vbv_bufsize=62500/nal_hrd=none/filler=0/ip_ratio=1.40/pb_ratio=1.30/aq=3: 1.00
Language : German
Default : Yes
Forced : No
Audio #1
ID : 2
Format : AC-3
Format/Info : Audio Coding 3
Commercial name : Dolby Digital
Codec ID : A_AC3
Duration : 1 h 28 min
Bit rate mode : Constant
Bit rate : 192 kb/s
Channel(s) : 2 channels
Channel layout : L R
Sampling rate : 48.0 kHz
Frame rate : 31.250 FPS (1536 SPF)
Compression mode : Lossy
Stream size : 122 MiB (2%)
Title : DVO
Language : Russian
Service kind : Complete Main
Default : Yes
Forced : No
Audio #2
ID : 3
Format : AC-3
Format/Info : Audio Coding 3
Commercial name : Dolby Digital
Codec ID : A_AC3
Duration : 1 h 28 min
Bit rate mode : Constant
Bit rate : 192 kb/s
Channel(s) : 1 channel
Channel layout : C
Sampling rate : 48.0 kHz
Frame rate : 31.250 FPS (1536 SPF)
Compression mode : Lossy
Stream size : 122 MiB (2%)
Title : AVO, О. Воротилин
Language : Russian
Service kind : Complete Main
Default : No
Forced : No
Audio #3
ID : 4
Format : AC-3
Format/Info : Audio Coding 3
Commercial name : Dolby Digital
Codec ID : A_AC3
Duration : 1 h 28 min
Bit rate mode : Constant
Bit rate : 192 kb/s
Channel(s) : 2 channels
Channel layout : L R
Sampling rate : 48.0 kHz
Frame rate : 31.250 FPS (1536 SPF)
Compression mode : Lossy
Stream size : 122 MiB (2%)
Title : VO, Женский голос
Language : Russian
Service kind : Complete Main
Default : No
Forced : No
Audio #4
ID : 5
Format : AC-3
Format/Info : Audio Coding 3
Commercial name : Dolby Digital
Codec ID : A_AC3
Duration : 1 h 28 min
Bit rate mode : Constant
Bit rate : 192 kb/s
Channel(s) : 1 channel
Channel layout : C
Sampling rate : 48.0 kHz
Frame rate : 31.250 FPS (1536 SPF)
Compression mode : Lossy
Stream size : 122 MiB (2%)
Title : Original
Language : German
Service kind : Complete Main
Default : No
Forced : No
Audio #5
ID : 6
Format : AC-3
Format/Info : Audio Coding 3
Commercial name : Dolby Digital
Codec ID : A_AC3
Duration : 1 h 28 min
Bit rate mode : Constant
Bit rate : 192 kb/s
Channel(s) : 1 channel
Channel layout : C
Sampling rate : 48.0 kHz
Frame rate : 31.250 FPS (1536 SPF)
Compression mode : Lossy
Stream size : 122 MiB (2%)
Title : Commentary by Wim Wenders
Language : English
Service kind : Complete Main
Default : No
Forced : No
Text #1
ID : 7
Format : UTF-8
Codec ID : S_TEXT/UTF8
Codec ID/Info : UTF-8 Plain Text
Duration : 1 h 27 min
Bit rate : 55 b/s
Count of elements : 866
Stream size : 35.9 KiB (0%)
Title : Full
Language : Russian
Default : No
Forced : No
Text #2
ID : 8
Format : UTF-8
Codec ID : S_TEXT/UTF8
Codec ID/Info : UTF-8 Plain Text
Duration : 1 h 27 min
Bit rate : 36 b/s
Count of elements : 931
Stream size : 23.4 KiB (0%)
Title : Full
Language : English
Default : No
Forced : No
Menu
00: 00: 00.000 : 00: 00: 00.000
00: 06: 49.283 : 00: 06: 49.283
00: 10: 57.322 : 00: 10: 57.322
00: 17: 05.481 : 00: 17: 05.481
00: 26: 53.612 : 00: 26: 53.612
00: 34: 07.211 : 00: 34: 07.211
00: 37: 40.632 : 00: 37: 40.632
00: 44: 15.735 : 00: 44: 15.735
00: 54: 42.862 : 00: 54: 42.862
00: 59: 47.458 : 00: 59: 47.458
01: 04: 22.275 : 01: 04: 22.275
01: 14: 53.988 : 01: 14: 53.988
01: 19: 32.935 : 01: 19: 32.935x264 info: profile High, level 4.1, 4: 2: 0, 8-bit
x264 info: frame I: 705 Avg QP: 16.38 size: 158190
x264 info: frame P: 17636 Avg QP: 18.77 size: 77669
x264 info: frame B: 109343 Avg QP: 20.64 size: 41230
x264 info: consecutive B-frames: 0.8% 0.4% 1.3% 3.7% 5.2% 36.3% 5.8% 2.1% 5.1% 4.3% 7.7% 13.8% 6.5% 2.9% 2.3% 0.4% 1.2%
x264 info: mb I I16..4: 1.9% 87.6% 10.5%
x264 info: mb P I16..4: 0.1% 28.5% 0.5% P16..4: 20.3% 26.9% 20.3% 2.1% 0.1% skip: 1.1%
x264 info: mb B I16..4: 0.0% 8.5% 0.0% B16..8: 34.7% 23.6% 9.8% direct: 9.0% skip: 14.3% L0: 52.8% L1: 36.4% BI: 10.8%
x264 info: 8x8 transform intra: 98.3% inter: 60.7%
x264 info: direct mvs spatial: 99.4% temporal: 0.6%
x264 info: coded y, uvDC, uvAC intra: 99.5% 98.5% 95.0% inter: 55.6% 45.8% 20.1%
x264 info: i16 v, h, dc, p: 47% 10% 17% 26%
x264 info: i8 v, h, dc, ddl, ddr, vr, hd, vl, hu: 8% 6% 16% 10% 12% 12% 12% 11% 12%
x264 info: i4 v, h, dc, ddl, ddr, vr, hd, vl, hu: 8% 8% 10% 9% 14% 13% 13% 11% 13%
x264 info: i8c dc, h, v, p: 68% 9% 8% 14%
x264 info: Weighted P-Frames: Y: 4.1% UV: 2.4%
x264 info: ref P L0: 36.1% 8.2% 17.3% 9.3% 7.4% 6.0% 5.2% 3.4% 2.8% 2.4% 1.9% 0.0% 0.0%
x264 info: ref B L0: 48.1% 17.5% 10.7% 6.8% 5.3% 4.2% 3.6% 2.4% 1.2% 0.3%
x264 info: ref B L1: 88.1% 11.9%
x264 info: kb/s: 8997.54
Скриншоты для ознакомления


Все одноименные релизы в Клубе
Время раздачи: 24/7 до первых 10-и скачавших
 
Уважаемый посетитель, Вы зашли на сайт как незарегистрированный пользователь. Мы рекомендуем Вам зарегистрироваться либо зайти на сайт под своим именем.

Другие новости по теме:

  • Продавец четырех времен года / The Merchant of Four Seasons / Handler der vier Jahreszeiten (1971) BDRemux [H.264 / 1080p] [Criterion Collection]


  • Информация
    Посетители, находящиеся в группе Гости, не могут оставлять комментарии в данной новости.
    Главная страница | Регистрация | Добавить новость | Новое на сайте Copyright © 2019. bolt.mmix.club All Rights Reserved