Подписывайся на наш канал в Telegram https://t.me/torrentok и получи доступ к торрентам без ограничений!
. bolt.mmix.club
Авторские права
con...@...Показать
Вход на сайт
Логин:
Пароль:
 
Навигация по сайту
Популярные статьи

Торрент трекер | Скачать торрент | Скачать через Торрент | Скачать торрент бесплатно | Скачать торрент без регистрации Фильмы торрент скачать Продавец четырех времен года / The Merchant of Four Seasons / Handler der vier Jahreszeiten (1971) BDRemux [H.264 / 1080p] [Criterion Collection] торрент скачать бесплатно

Продавец четырех времен года / The Merchant of Four Seasons / Handler der vier Jahreszeiten (1971) BDRemux [H.264 / 1080p] [Criterion Collection] торрент скачать бесплатно

Фильмы торрент скачать
Продавец четырех времен года / The Merchant of Four Seasons / Handler der vier Jahreszeiten (1971) BDRemux [H.264 / 1080p] [Criterion Collection]Производство: Германия (ФРГ)/Janus Films, Tango Film
Жанр: Драма
Режиссер: Райнер Вернер Фассбиндер

Актеры
Ганс Хиршмюллер, Ирм Херманн, Ханна Шигулла, Клаус Лёвич, Карл Шейдт, Андреа Шобер, Густи Крайссль, Ингрид Кавен, Курт Рааб, Хайде Симон

Описание

Трагедия одиночки, оказавшегося лишним в обществе всеобщего благоденствия Эпохи Экономического чуда. Ханс Эпп несколько лет провел вдали от родины в иностранном легионе, и вот вернулся назад. Уж лучше бы тебе не возвращаться! — злобно шипит мать, встречая сына на пороге дома. И Ханс уходит, устраивается на работу в полицию, обзаводится семьей, потом становится продавцом овощей в разъездном магазинчике. Жену он не любит, она платит ему тем же. Возлюбленная Ханса слишком горда, чтобы связать жизнь с уличным торговцем. Одна из стычек с женой завершается тяжелейшим инфарктом. Разочаровавшись в жизни, герой решается на самоубийство. Исподволь, но настойчиво каждый участник действия подталкивает его к этому решению. И только сестра Анна пытается оказать ему моральную поддержку, но не может предотвратить его роковую кончину.


Возраст: 16+ (зрителям, достигшим 16 лет)
Релиз от: NNMClub
Продолжительность: 01: 28: 45
Качество видео: BDRemux 1080p
Перевод: Профессиональный (двухголосый, закадровый), любительский (одноголосый, закадровый)
Субтитры: Русские, английские
Видео: AVC/H.264, 1920x1080, (16: 9), ~35 Mbps, 23.976 fps
Аудио 1: AC3, 2 ch, 192 Kbps - Русский (DVO)
Аудио 2: DTS-HD MA, 1 ch, 1048 Kbps - Русский (AVO, О. Воротилин)
Аудио 3: AC3, 2 ch, 192 Kbps - Русский (AVO, Женский голос)
Аудио 4: LPCM, 1 ch, 1152 Kbps - Немецкий (оригинал)
Аудио 5: AC3, 1 ch, 192 Kbps - Английский (Commentary by Wim Wenders)General
Unique ID : 134149729698692199023954060703677041358 (0x64EC4C5348C34D488ACC57C5D5304ACE)
Complete name : F: Handler.der.vier.Jahreszeiten.1971.BDRemux.1080p.Criterion.Collection.NNMClub.mkv
Format : Matroska
Format version : Version 4
File size : 23.4 GiB
Duration : 1 h 28 min
Overall bit rate mode : Variable
Overall bit rate : 37.8 Mb/s
Movie name : Продавец четырех времен года/The Merchant of Four Seasons /Händler der vier Jahreszeiten (1971) Criterion Collection
Encoded date : UTC 2020-08-25 12: 54: 38
Writing application : mkvmerge v49.0.0 (\'Sick Of Losing Soulmates\') 64-bit
Writing library : libebml v1.4.0 + libmatroska v1.6.1
Cover : Yes
Attachments : Cover.jpg
Video
ID : 1
Format : AVC
Format/Info : Advanced Video Codec
Format profile : High@L4.1
Format settings : CABAC/4 Ref Frames
Format settings, CABAC : Yes
Format settings, Reference : 4 frames
Codec ID : V_MPEG4/ISO/AVC
Duration : 1 h 28 min
Bit rate mode : Variable
Bit rate : 35.0 Mb/s
Maximum bit rate : 37.0 Mb/s
Width : 1 920 pixels
Height : 1 080 pixels
Display aspect ratio : 16: 9
Frame rate mode : Constant
Frame rate : 23.976 (24000/1001) FPS
Color space : YUV
Chroma subsampling : 4: 2: 0
Bit depth : 8 bits
Scan type : Progressive
Bits/(Pixel*Frame) : 0.704
Stream size : 21.7 GiB (93%)
Title : Продавец четырех времен года/The Merchant of Four Seasons /Händler der vier Jahreszeiten (1971) Criterion Collection
Language : German
Default : Yes
Forced : No
Audio #1
ID : 2
Format : AC-3
Format/Info : Audio Coding 3
Commercial name : Dolby Digital
Codec ID : A_AC3
Duration : 1 h 28 min
Bit rate mode : Constant
Bit rate : 192 kb/s
Channel(s) : 2 channels
Channel layout : L R
Sampling rate : 48.0 kHz
Frame rate : 31.250 FPS (1536 SPF)
Compression mode : Lossy
Stream size : 122 MiB (1%)
Title : DVO
Language : Russian
Service kind : Complete Main
Default : Yes
Forced : No
Audio #2
ID : 3
Format : DTS XLL
Format/Info : Digital Theater Systems
Commercial name : DTS-HD Master Audio
Codec ID : A_DTS
Duration : 1 h 28 min
Bit rate mode : Variable
Bit rate : 1 048 kb/s
Channel(s) : 1 channel
Channel layout : C
Sampling rate : 48.0 kHz
Frame rate : 93.750 FPS (512 SPF)
Bit depth : 24 bits
Compression mode : Lossless
Stream size : 665 MiB (3%)
Title : AVO, О. Воротилин
Language : Russian
Default : No
Forced : No
Audio #3
ID : 4
Format : AC-3
Format/Info : Audio Coding 3
Commercial name : Dolby Digital
Codec ID : A_AC3
Duration : 1 h 28 min
Bit rate mode : Constant
Bit rate : 192 kb/s
Channel(s) : 2 channels
Channel layout : L R
Sampling rate : 48.0 kHz
Frame rate : 31.250 FPS (1536 SPF)
Compression mode : Lossy
Stream size : 122 MiB (1%)
Title : VO, Женский голос
Language : Russian
Service kind : Complete Main
Default : No
Forced : No
Audio #4
ID : 5
Format : PCM
Format settings : Little/Signed
Codec ID : A_PCM/INT/LIT
Duration : 1 h 28 min
Bit rate mode : Constant
Bit rate : 1 152 kb/s
Channel(s) : 1 channel
Sampling rate : 48.0 kHz
Frame rate : 32.000 FPS (1500 SPF)
Bit depth : 24 bits
Stream size : 731 MiB (3%)
Title : Original
Language : German
Default : No
Forced : No
Audio #5
ID : 6
Format : AC-3
Format/Info : Audio Coding 3
Commercial name : Dolby Digital
Codec ID : A_AC3
Duration : 1 h 28 min
Bit rate mode : Constant
Bit rate : 192 kb/s
Channel(s) : 1 channel
Channel layout : C
Sampling rate : 48.0 kHz
Frame rate : 31.250 FPS (1536 SPF)
Compression mode : Lossy
Stream size : 122 MiB (1%)
Title : Commentary by Wim Wenders
Language : English
Service kind : Complete Main
Default : No
Forced : No
Text #1
ID : 7
Format : UTF-8
Codec ID : S_TEXT/UTF8
Codec ID/Info : UTF-8 Plain Text
Duration : 1 h 27 min
Bit rate : 55 b/s
Count of elements : 866
Stream size : 35.9 KiB (0%)
Title : Full
Language : Russian
Default : No
Forced : No
Text #2
ID : 8
Format : UTF-8
Codec ID : S_TEXT/UTF8
Codec ID/Info : UTF-8 Plain Text
Duration : 1 h 27 min
Bit rate : 36 b/s
Count of elements : 931
Stream size : 23.4 KiB (0%)
Title : Full
Language : English
Default : No
Forced : No
Menu
00: 00: 00.000 : 00: 00: 00.000
00: 06: 49.283 : 00: 06: 49.283
00: 10: 57.322 : 00: 10: 57.322
00: 17: 05.481 : 00: 17: 05.481
00: 26: 53.612 : 00: 26: 53.612
00: 34: 07.211 : 00: 34: 07.211
00: 37: 40.632 : 00: 37: 40.632
00: 44: 15.735 : 00: 44: 15.735
00: 54: 42.862 : 00: 54: 42.862
00: 59: 47.458 : 00: 59: 47.458
01: 04: 22.275 : 01: 04: 22.275
01: 14: 53.988 : 01: 14: 53.988
01: 19: 32.935 : 01: 19: 32.935
Скриншоты для ознакомления


Все одноименные релизы в Клубе
Время раздачи: 24/7 до первых 10-и скачавших
 
Уважаемый посетитель, Вы зашли на сайт как незарегистрированный пользователь. Мы рекомендуем Вам зарегистрироваться либо зайти на сайт под своим именем.

Другие новости по теме:

  • Продавец четырех времен года / The Merchant of Four Seasons / Handler der vier Jahreszeiten (1971) BDRip [H.264 / 720p] [Criterion Collection]


  • Информация
    Посетители, находящиеся в группе Гости, не могут оставлять комментарии в данной новости.
    Главная страница | Регистрация | Добавить новость | Новое на сайте Copyright © 2019. bolt.mmix.club All Rights Reserved