Подписывайся на наш канал в Telegram https://t.me/torrentok и получи доступ к торрентам без ограничений!
. bolt.mmix.club
Авторские права
con...@...Показать
Вход на сайт
Логин:
Пароль:
 
Навигация по сайту
Популярные статьи

Торрент трекер | Скачать торрент | Скачать через Торрент | Скачать торрент бесплатно | Скачать торрент без регистрации Фильмы торрент скачать Поезд в Пусан 2: Полуостров / Bando (Train to Busan 2) (2020) WEB-DLRip [H.264 / 1080p-LQ] [Line, AD] торрент скачать бесплатно

Поезд в Пусан 2: Полуостров / Bando (Train to Busan 2) (2020) WEB-DLRip [H.264 / 1080p-LQ] [Line, AD] торрент скачать бесплатно

Фильмы торрент скачать
Поезд в Пусан 2: Полуостров / Bando (Train to Busan 2) (2020) WEB-DLRip [H.264 / 1080p-LQ] [Line, AD]Производство: Корея Южная/Movic Comics, Next Entertainment World, RedPeter Film
Жанр: ужасы, триллер, боевик
Режиссер: Ён Сан-хо

Актеры
Кан Дон-вон, Ли Джон-хён, Ли Рэ, Квон Хэ-хё, Ким Мин-джэ, Ку Гё-хван, Ким До-юн, Ли Е-вон, Хван Ён-хи, Ким Чхоль-юн

Описание

Через четыре года после вспышки страшного вируса, распространение которого Южная Корея сдержать не смогла, то, что осталось от страны, находится в блокаде, а полчища зомби разгуливают по всему полуострову. Бывший военный в составе спецотряда отправляется в закрытую зону, чтобы отыскать припрятанные деньги, и теперь ему предстоит пробираться по жуткому миру, где помимо означенной угрозы опасность представляют и люди, устраивающие жестокие игры на выживание.


Возраст: 18+ (зрителям, достигшим 18 лет. запрещено для детей)
Дата мировой премьеры: 15 июля 2020
Дата российской премьеры: 20 августа 2020, ПРОвзгляд
Продолжительность: 01: 56: 00
Качество видео: WEB-DLRip
Перевод: Дублированный (Line)
Субтитры: Корейские (вшитые, не отключаемые)
Реклама: присутствуют видео, аудио, текстовые вставки рекламы
Видео: AVC/H.264, 1920х804, ~7985 Kbps
Аудио: AAC, 2 ch, 384 Kbps, русский (Dub)
Общее
Уникальный идентификатор : 179672393026371388316348584902587149190 (0x872BA4E9B236390EB6B3C36369B56B86)
Полное имя : E: DownloadsPezD.v.Pusan.2.2020.D.WEB-DL.1O8Op.mkv
Формат : Matroska
Версия формата : Version 2
Размер файла : 6, 82 Гбайт
Продолжительность : 1 ч. 56 м.
Режим общего битрейта : Переменный
Общий поток : 8 368 Кбит/сек
Дата кодирования : UTC 2020-08-24 17: 55: 15
Программа кодирования : mkvmerge v8.3.0 (\'Over the Horizon\') 64bit
Библиотека кодирования : libebml v1.3.1 + libmatroska v1.4.2
Видео
Идентификатор : 1
Формат : AVC
Формат/Информация : Advanced Video Codec
Профиль формата : High@L4.1
Настройки формата : CABAC/4 Ref Frames
Параметр CABAC формата : Да
Параметр RefFrames формата : 4 кадра
Идентификатор кодека : V_MPEG4/ISO/AVC
Продолжительность : 1 ч. 56 м.
Вид битрейта : Переменный
Битрейт : 7 985 Кбит/сек
Номинальный битрейт : 9 000 Кбит/сек
Максимальный битрейт : 9 000 Кбит/сек
Ширина : 1 920 пикселей
Высота : 804 пикселя
Соотношение сторон : 2, 40: 1
Режим частоты кадров : Постоянный
Частота кадров : 23, 976 (24000/1001) кадра/сек
Стандарт вещания : Component
Цветовое пространство : YUV
Субдискретизация насыщенности : 4: 2: 0
Битовая глубина : 8 бит
Тип развёртки : Прогрессивная
Бит/(Пиксели*Кадры) : 0.216
Размер потока : 6, 51 Гбайт (95%)
Библиотека кодирования : x264 core 155
Настройки программы : cabac=1/ref=4/deblock=1: 0: 0/analyse=0x3: 0x3/me=dia/subme=1/psy=1/psy_rd=1.00: 0.00/mixed_ref=0/me_range=16/chroma_me=1/trellis=0/8x8dct=1/cqm=1/deadzone=21, 11/fast_pskip=1/chroma_qp_offset=0/threads=25/lookahead_threads=4/sliced_threads=0/slices=1/nr=0/decimate=1/interlaced=0/minigop=0/stitchable=1/constrained_intra=0/bframes=2/b_pyramid=0/b_adapt=0/b_bias=0/direct=1/weightb=1/open_gop=1/weightp=0/keyint=240/keyint_min=23/scenecut=40/intra_refresh=0/rc_lookahead=0/rc=cbr/mbtree=0/bitrate=9000/ratetol=1.0/qcomp=0.60/qpmin=1/qpmax=69/qpstep=4/vbv_maxrate=9000/vbv_bufsize=9000/nal_hrd=vbr/filler=0/ip_ratio=1.40/pb_ratio=1.30/aq=1: 1.00
Default : Да
Forced : Нет
Цветовой диапазон : Limited
Основные цвета : BT.709
Характеристики трансфера : BT.709
Коэффициенты матрицы : BT.709
Аудио
Идентификатор : 2
Формат : AAC Main
Формат/Информация : Advanced Audio Codec
Идентификатор кодека : A_AAC-1
Продолжительность : 1 ч. 56 м.
Битрейт : 384 Кбит/сек
Каналы : 2 канала
Channel layout : L R
Частота : 48, 0 КГц
Частота кадров : 46, 875 кадров/сек (1024 SPF)
Метод сжатия : С потерями
Размер потока : 318 Мбайт (5%)
Default : Да
Forced : Нет

Скриншоты для ознакомления



Все одноименные релизы в Клубе
Время раздачи: 24/7 (мультитрекерная раздача)
 
Уважаемый посетитель, Вы зашли на сайт как незарегистрированный пользователь. Мы рекомендуем Вам зарегистрироваться либо зайти на сайт под своим именем.

Другие новости по теме:

  • Поезд в Пусан / Train to Busan / Busanhaeng (2016) WEBRip [H.264 / 720p-LQ]
  • Поезд в Пусан / Busanhaeng (2016) WEBRip [H.264 / 1080p-LQ]
  • Поезд в Пусан / Busanhaeng (2016) WEBRip
  • Поезд в Пусан / Busanhaeng (2016) WEBRip
  • Поезд в Пусан / Busanhaeng (2016) WEBRip [H.264 / 1080p-LQ]
  • Поезд в Пусан / Busanhaeng (2016) WEBRip [H.264 / 1080p-LQ] [Line]
  • Поезд в Пусан / Busanhaeng (2016) HDTVRip [Line]
  • Поезд в Пусан / Busanhaeng (2016) WEBRip [H.264] [MP4|1024x552]


  • Информация
    Посетители, находящиеся в группе Гости, не могут оставлять комментарии в данной новости.
    Главная страница | Регистрация | Добавить новость | Новое на сайте Copyright © 2019. bolt.mmix.club All Rights Reserved