Подписывайся на наш канал в Telegram https://t.me/torrentok и получи доступ к торрентам без ограничений!
. bolt.mmix.club
Авторские права
con...@...Показать
Вход на сайт
Логин:
Пароль:
 
Навигация по сайту
Популярные статьи

Торрент трекер | Скачать торрент | Скачать через Торрент | Скачать торрент бесплатно | Скачать торрент без регистрации Фильмы торрент скачать Агент Ева / Ava (2020) WEB-DLRip [MVO] торрент скачать бесплатно

Агент Ева / Ava (2020) WEB-DLRip [MVO] торрент скачать бесплатно

Фильмы торрент скачать
Агент Ева / Ava (2020) WEB-DLRip [MVO]Производство: США/Freckle Films, Voltage Pictures
Жанр: Боевик, триллер, драма, криминал, детектив
Режиссер: Тейт Тейлор
Продюсер: Келли Кармайкл, Николя Картье, Джессика Честейн

Актеры
Джессика Честейн, Джон Малкович, Джесс Вейкслер, Коммон, Джина Дэвис, Колин Фаррелл, Йоан Гриффит, Диана Сильверс, Джоан Чэнь, Эфка Кваракиюс и др.

Описание

Она умна, красива и чрезвычайно опасна. Перемещаясь по миру словно тень, наёмная убийца Ева убирает людей по заданию руководства, но с очередным объектом всё проходит не так гладко. Когда Ева решает наладить отношения с семьёй - сестрой и матерью, которых она не видела 8 лет, - на неё вдруг совершается покушение.


Возраст: 18+ (зрителям, достигшим 18 лет. запрещено для детей)
Рейтинг MPAA: R (лицам до 17 лет обязательно присутствие взрослого)
Дата мировой премьеры: 2 июля 2020
Дата российской премьеры: 20 августа 2020 , Вольга
Продолжительность: 01: 37: 10
Качество видео: WEB-DLRip
Перевод: Многоголосый профессиональный (HDRezka Studio)
Субтитры: Русские (Forced) отдельно
Видео: Xvid, 720х304, ~1695 Kbps
Аудио: AC3, 6 ch, 448 Kbps
General
Complete name : C: ЗагрузкиAva.2020.WEB-DLRip.1.46GbAva.2020.WEB-DLRip.1.46Gb.avi
Format : AVI
Format/Info : Audio Video Interleave
File size : 1.46 GiB
Duration : 1 h 37 min
Overall bit rate : 2 152 kb/s
Movie name : Агент Ева/Ava (2020)
Director : #stillet
Genre : Боевик, триллер, драма, криминал, детектив
Writing application : VirtualDubModRus 1.5.10.2 (build 2542/release)
Writing library : VirtualDubMod build 2542/release
Video
ID : 0
Format : MPEG-4 Visual
Format profile : Advanced Simple@L5
Format settings : BVOP1/Custom Matrix
Format settings, BVOP : 1
Format settings, QPel : No
Format settings, GMC : No warppoints
Format settings, Matrix : Custom
Codec ID : XVID
Codec ID/Hint : XviD
Duration : 1 h 37 min
Bit rate : 1 695 kb/s
Width : 720 pixels
Height : 304 pixels
Display aspect ratio : 2.35: 1
Frame rate : 23.976 (24000/1001) FPS
Color space : YUV
Chroma subsampling : 4: 2: 0
Bit depth : 8 bits
Scan type : Progressive
Compression mode : Lossy
Bits/(Pixel*Frame) : 0.323
Stream size : 1.15 GiB (79%)
Writing library : XviD 69
Audio
ID : 1
Format : AC-3
Format/Info : Audio Coding 3
Commercial name : Dolby Digital
Codec ID : 2000
Duration : 1 h 37 min
Bit rate mode : Constant
Bit rate : 448 kb/s
Channel(s) : 6 channels
Channel layout : L R C LFE Ls Rs
Sampling rate : 48.0 kHz
Frame rate : 31.250 FPS (1536 SPF)
Compression mode : Lossy
Stream size : 311 MiB (21%)
Alignment : Split across interleaves
Interleave, duration : 42 ms (1.00 video frame)
Interleave, preload duratio : 500 ms
Service kind : Complete Main

Скриншоты для ознакомления



Все одноименные релизы в Клубе
Время раздачи: 24/7 (до появления первых 3-5 скачавших)
 
Уважаемый посетитель, Вы зашли на сайт как незарегистрированный пользователь. Мы рекомендуем Вам зарегистрироваться либо зайти на сайт под своим именем.

Другие новости по теме:

  • Секретный агент / Unlocked (2017) WEB-DLRip
  • Агент / Поворот / Turn (2014) WEB-DLRip (сезон 1, серии 1-10 из 10) Lostfilm скачать через торрент бесплатно
  • Агент / Поворот / Turn (2015) WEB-DLRip (сезон 2, серии 1 из 10) Lostfilm (обновляемая) скачать через торрент бесплатно
  • Агент / Поворот / Turn (2015) WEB-DLRip (сезон 2, серии 1-2 из 10) BaibaKo (обновляемая) скачать через торрент бесплатно
  • Агент Икс / Agent X (2015) WEB-DLRip (сезон 1, серия 1 из 10) BaibaKo (обновляемая) скачать через торрент бесплатно
  • Агент Икс / Agent X (2015) WEB-DLRip [H.264] (сезон 1, серии 1-10 из 10) BaibaKo [MP4|720x400] скачать через торрент бесплатно
  • Агент Картер / Agent Carter (2016) WEB-DLRip (сезон 2, серии 1 из 10) LostFilm (обновляемая)
  • Агент Картер / Agent Carter (2016) WEB-DLRip [H.264] (сезон 2, серии 1 из 10) LostFilm [MP4|1280x720]


  • Информация
    Посетители, находящиеся в группе Гости, не могут оставлять комментарии в данной новости.
    Главная страница | Регистрация | Добавить новость | Новое на сайте Copyright © 2019. bolt.mmix.club All Rights Reserved