Подписывайся на наш канал в Telegram https://t.me/torrentok и получи доступ к торрентам без ограничений!
. bolt.mmix.club
Авторские права
con...@...Показать
Вход на сайт
Логин:
Пароль:
 
Навигация по сайту
Популярные статьи

Торрент трекер | Скачать торрент | Скачать через Торрент | Скачать торрент бесплатно | Скачать торрент без регистрации Фильмы торрент скачать Меч и колдун / The Sword and the Sorcerer (1982) DVDRip [H.264] торрент скачать бесплатно

Меч и колдун / The Sword and the Sorcerer (1982) DVDRip [H.264] торрент скачать бесплатно

Фильмы торрент скачать
Меч и колдун / The Sword and the Sorcerer (1982) DVDRip [H.264]Производство: США/Sorcerer Productions
Жанр: Ужасы, Фэнтези, Боевик, Приключения
Режиссер: Альберт Пьюн
Продюсер: Брэндон Чейз, Марианн Чейз, Марк Л. Розен

Актеры
Ли Хорсли, Кэтлин Бэллер, Саймон МакКоркиндейл, Джордж Махарис, Ричард Линч, Ричард Молл, Энтони Де Лонгис, Роберт Тессьер, Нина Ван Палландт, Анна Бьорн

Описание

С помощью мертвого колдуна Хузии, поднятого из могилы черной магией, король Кромвелль завоевывает соседнее королевство Эдан, присоединяя его к своим землям. Однако воинам узурпатора не удается добраться до принца Талона, который бежит к бывшим союзникам своего отца. Спустя годы повзрослевший Талон возвращается в Эдан в образе наемника, продающего свой волшебный меч с тремя лезвиями всем желающим. В этот момент в столице бывшего королевства готовится восстание во главе с сыном первого министра бывшего короля Микой и его сестрой Аланой. Но предательство отдает предводителя бунтовщиков в руки Кромвеля. Талон соглашается помочь мятежникам освободить своего лидера. Но ни он, ни Кромвелль, ни Алана не подозревают, что мертвый колдун Хузия не вернулся в могилу и намерен вернуть себе былое могущество.


Рейтинг MPAA: R (лицам до 17 лет обязательно присутствие взрослого)
Релиз от: Охрана (NNMCLUB)
Продолжительность: 01: 35: 20
Качество видео: DVDRip
Перевод: Двуголосый профессиональный, авторский
Субтитры: Отсутствуют
Видео: AVC/H.264, 720x384, ~1995 Kbps
Аудио 1: AC3, 2 ch, 192 Kbps, 48.0 kHz – Русский DVO, Норд Видео
Аудио 2: AC3, 2 ch, 192 Kbps, 48.0 kHz – Русский AVO, Андрей Гаврилов
Аудио 3: AC3, 2 ch, 192 Kbps, 48.0 kHz – Английский
Общее
Уникальный идентификатор : 228353173866236246276897167219101573136 (0xABCB38B723AD544183790A19F83CA010)
Полное имя : D: DownloadsМеч и колдун. 1982. NNMCLUB.mkv
Формат : Matroska
Версия формата : Version 4/Version 2
Размер файла : 1, 71 Гбайт
Продолжительность : 1 ч. 35 м.
Общий поток : 2573 Кбит/сек
Дата кодирования : UTC 2020-08-23 09: 53: 28
Программа кодирования : mkvmerge v7.9.0 (\'Birds\') 64bit
Библиотека кодирования : libebml v1.3.1 + libmatroska v1.4.2
Видео
Идентификатор : 1
Формат : AVC
Формат/Информация : Advanced Video Codec
Профиль формата : High@L4.1
Настройки формата : CABAC/9 Ref Frames
Параметр CABAC формата : Да
Параметр RefFrames формата : 9 кадров
Идентификатор кодека : V_MPEG4/ISO/AVC
Продолжительность : 1 ч. 35 м.
Битрейт : 1995 Кбит/сек
Ширина : 720 пикселей
Высота : 384 пикселя
Соотношение сторон : 1, 85: 1
Режим частоты кадров : Постоянный
Частота кадров : 25, 000 кадров/сек
Цветовое пространство : YUV
Субдискретизация насыщенности : 4: 2: 0
Битовая глубина : 8 бит
Тип развёртки : Прогрессивная
Бит/(Пиксели*Кадры) : 0.289
Размер потока : 1, 33 Гбайт (78%)
Заголовок : The Sword and the Sorcerer
Библиотека кодирования : x264 core 146 r2538 121396c
Настройки программы : cabac=1/ref=9/deblock=1: -1: -1/analyse=0x3: 0x113/me=umh/subme=10/psy=1/psy_rd=1.00: 0.10/mixed_ref=1/me_range=32/chroma_me=1/trellis=2/8x8dct=1/cqm=0/deadzone=21, 11/fast_pskip=0/chroma_qp_offset=-3/threads=6/lookahead_threads=1/sliced_threads=0/nr=0/decimate=0/interlaced=0/bluray_compat=0/constrained_intra=0/bframes=8/b_pyramid=2/b_adapt=2/b_bias=0/direct=3/weightb=1/open_gop=0/weightp=2/keyint=250/keyint_min=25/scenecut=40/intra_refresh=0/rc_lookahead=60/rc=2pass/mbtree=1/bitrate=1995/ratetol=1.0/qcomp=0.60/qpmin=0/qpmax=69/qpstep=4/cplxblur=20.0/qblur=0.5/vbv_maxrate=14000/vbv_bufsize=14000/nal_hrd=none/filler=0/ip_ratio=1.40/aq=1: 1.00
Язык : English
Default : Да
Forced : Нет
Аудио #1
Идентификатор : 2
Формат : AC-3
Формат/Информация : Audio Coding 3
Идентификатор кодека : A_AC3
Продолжительность : 1 ч. 35 м.
Вид битрейта : Постоянный
Битрейт : 192 Кбит/сек
Каналы : 2 канала
Расположение каналов : Front: L R
Частота : 48, 0 КГц
Частота кадров : 31, 250 кадров/сек (1536 SPF)
Битовая глубина : 16 бит
Метод сжатия : С потерями
Размер потока : 131 Мбайт (7%)
Заголовок : Двухголосый закадровый, Норд Видео
Язык : Russian
ServiceKind/String : Complete Main
Default : Да
Forced : Нет
Аудио #2
Идентификатор : 3
Формат : AC-3
Формат/Информация : Audio Coding 3
Идентификатор кодека : A_AC3
Продолжительность : 1 ч. 35 м.
Вид битрейта : Постоянный
Битрейт : 192 Кбит/сек
Каналы : 2 канала
Расположение каналов : Front: L R
Частота : 48, 0 КГц
Частота кадров : 31, 250 кадров/сек (1536 SPF)
Битовая глубина : 16 бит
Метод сжатия : С потерями
Размер потока : 131 Мбайт (7%)
Заголовок : Авторский, Андрей Гаврилов
Язык : Russian
ServiceKind/String : Complete Main
Default : Нет
Forced : Нет
Аудио #3
Идентификатор : 4
Формат : AC-3
Формат/Информация : Audio Coding 3
Идентификатор кодека : A_AC3
Продолжительность : 1 ч. 35 м.
Вид битрейта : Постоянный
Битрейт : 192 Кбит/сек
Каналы : 2 канала
Расположение каналов : Front: L R
Частота : 48, 0 КГц
Частота кадров : 31, 250 кадров/сек (1536 SPF)
Битовая глубина : 16 бит
Метод сжатия : С потерями
Размер потока : 131 Мбайт (7%)
Заголовок : Английский
Язык : English
ServiceKind/String : Complete Main
Default : Нет
Forced : Нет

Скриншоты для ознакомления




Все одноименные релизы в Клубе
Время раздачи: с 13: 00 до 01: 00 МСК, выходные круглосуточно (до появления первых 3-5 скачавших)
 
Уважаемый посетитель, Вы зашли на сайт как незарегистрированный пользователь. Мы рекомендуем Вам зарегистрироваться либо зайти на сайт под своим именем.

Другие новости по теме:

  • Дмитрий Колдун - Манекен (2015) [MP3|320 кб / с]<Pop> скачать через торрент бесплатно
  • Валерия Чернованова | Колдун моей мечты (2016) [FB2]
  • Колдун / Sorcerer (1977) BDRip [H.264] [AVO]
  • Андрей Лазарчук | Колдун (2015) [MP3]
  • Александр Прозоров | Аркаимский колдун (2016) [FB2]
  • Иван Лажечников | Колдун на Сухаревой башне. (2012) [MP3]
  • Шегги, колдун и Че Гевара / The Shegué, the Sorcerer, and Che Guevara (2016) WEB-DLRip [720p-LQ]
  • Анна Велес | Колдун высшего звена (2016) [FB2]


  • Информация
    Посетители, находящиеся в группе Гости, не могут оставлять комментарии в данной новости.
    Главная страница | Регистрация | Добавить новость | Новое на сайте Copyright © 2019. bolt.mmix.club All Rights Reserved