Подписывайся на наш канал в Telegram https://t.me/torrentok и получи доступ к торрентам без ограничений!
. bolt.mmix.club
Авторские права
con...@...Показать
Вход на сайт
Логин:
Пароль:
 
Навигация по сайту
Популярные статьи

Торрент трекер | Скачать торрент | Скачать через Торрент | Скачать торрент бесплатно | Скачать торрент без регистрации Фильмы торрент скачать Агент Ева / Ava (2020) WEB-DLRip [AD] торрент скачать бесплатно

Агент Ева / Ava (2020) WEB-DLRip [AD] торрент скачать бесплатно

Фильмы торрент скачать
Агент Ева / Ava (2020) WEB-DLRip [AD]Производство: США/Freckle Films, Voltage Pictures
Жанр: Боевик, триллер, драма, криминал, детектив
Режиссер: Тейт Тейлор

Актеры
Джессика Честейн, Джон Малкович, Джесс Вейкслер, Коммон, Джина Дэвис, Колин Фаррелл, Диана Сильверс, Йоан Гриффит, Джоан Чэнь, Janelle Feigley

Описание

Она умна, красива и чрезвычайно опасна. Перемещаясь по миру словно тень, агент по имени Ева в одиночку выполняет самые сложные задания своего руководства. Когда внезапно очередная спецоперация идет не по плану, и Ева решает выйти из игры, один из влиятельных боссов секретной службы открывает на неё охоту.


Возраст: 18+ (зрителям, достигшим 18 лет. запрещено для детей)
Рейтинг MPAA: R (лицам до 17 лет обязательно присутствие взрослого)
Дата мировой премьеры: 2 июля 2020
Дата российской премьеры: 20 августа 2020 , Вольга
Продолжительность: 01: 37: 09
Качество видео: WEB-DLRip
Перевод: Дублированный (Line)
Субтитры: Отсутствуют
Реклама: Банер, аудио вставки
Видео: Xvid, 720x304, 1607 kbps
Аудио: AC3, 2 ch, 192 Kbps - Русский
Общее
Полное имя : Ava.2020.Line.WEB-DLRip.avi
Формат : AVI
Формат/Информация : Audio Video Interleave
Размер файла : 1, 23 Гбайт
Продолжительность : 1 ч. 37 м.
Общий поток : 1810 Кбит/сек
Видео
Идентификатор : 0
Формат : MPEG-4 Visual
Профиль формата : Advanced Simple@L5
Настройки формата : BVOP2/Custom Matrix
Параметр BVOP формата : 2
Параметр QPel формата : Нет
Параметр GMC формата : Без точки перехода
Параметр матрицы формата : Выборочная
Идентификатор кодека : XVID
Идентификатор кодека/Подсказка : XviD
Продолжительность : 1 ч. 37 м.
Битрейт : 1607 Кбит/сек
Ширина : 720 пикселей
Высота : 304 пикселя
Соотношение сторон : 2, 35: 1
Частота кадров : 23, 976 (23976/1000) кадра/сек
Цветовое пространство : YUV
Субдискретизация насыщенности : 4: 2: 0
Битовая глубина : 8 бит
Тип развёртки : Прогрессивная
Метод сжатия : С потерями
Бит/(Пиксели*Кадры) : 0.306
Размер потока : 1, 09 Гбайт (89%)
Библиотека кодирования : XviD 1.2.1 (UTC 2008-12-04)
Аудио
Идентификатор : 1
Формат : AC-3
Формат/Информация : Audio Coding 3
Коммерческое название : Dolby Digital
Идентификатор кодека : 2000
Продолжительность : 1 ч. 37 м.
Вид битрейта : Постоянный
Битрейт : 192 Кбит/сек
Каналы : 2 канала
Channel layout : L R
Частота : 48, 0 КГц
Частота кадров : 31, 250 кадров/сек (1536 SPF)
Битовая глубина : 16 бит
Метод сжатия : С потерями
Размер потока : 133 Мбайт (11%)
Выравнивание : Соединение по промежуткам
Продолжительность промежутка : 32 мс. (0, 77 видеокадр)
ServiceKind/String : Complete Main

Скриншоты для ознакомления



Все одноименные релизы в Клубе
Время раздачи: 24/7 (мультитрекерная раздача)
 
Уважаемый посетитель, Вы зашли на сайт как незарегистрированный пользователь. Мы рекомендуем Вам зарегистрироваться либо зайти на сайт под своим именем.

Другие новости по теме:

  • Секретный агент / Unlocked (2017) WEB-DLRip
  • Агент / Поворот / Turn (2014) WEB-DLRip (сезон 1, серии 1-10 из 10) Lostfilm скачать через торрент бесплатно
  • Агент / Поворот / Turn (2015) WEB-DLRip (сезон 2, серии 1 из 10) Lostfilm (обновляемая) скачать через торрент бесплатно
  • Агент / Поворот / Turn (2015) WEB-DLRip (сезон 2, серии 1-2 из 10) BaibaKo (обновляемая) скачать через торрент бесплатно
  • Агент Икс / Agent X (2015) WEB-DLRip (сезон 1, серия 1 из 10) BaibaKo (обновляемая) скачать через торрент бесплатно
  • Агент Икс / Agent X (2015) WEB-DLRip [H.264] (сезон 1, серии 1-10 из 10) BaibaKo [MP4|720x400] скачать через торрент бесплатно
  • Агент Картер / Agent Carter (2016) WEB-DLRip (сезон 2, серии 1 из 10) LostFilm (обновляемая)
  • Агент Картер / Agent Carter (2016) WEB-DLRip [H.264] (сезон 2, серии 1 из 10) LostFilm [MP4|1280x720]


  • Информация
    Посетители, находящиеся в группе Гости, не могут оставлять комментарии в данной новости.
    Главная страница | Регистрация | Добавить новость | Новое на сайте Copyright © 2019. bolt.mmix.club All Rights Reserved