Подписывайся на наш канал в Telegram https://t.me/torrentok и получи доступ к торрентам без ограничений!
. bolt.mmix.club
Авторские права
con...@...Показать
Вход на сайт
Логин:
Пароль:
 
Навигация по сайту
Популярные статьи

Торрент трекер | Скачать торрент | Скачать через Торрент | Скачать торрент бесплатно | Скачать торрент без регистрации Фильмы торрент скачать Ford против Ferrari / Ford v Ferrari (2019) DVD9 [Custom] торрент скачать бесплатно

Ford против Ferrari / Ford v Ferrari (2019) DVD9 [Custom] торрент скачать бесплатно

Фильмы торрент скачать
Ford против Ferrari / Ford v Ferrari (2019) DVD9 [Custom]Производство: США/20th Century Fox Film Corporation, TSG Entertainment, Chernin Entertainment
Жанр: Биография, спорт, драма, боевик
Режиссер: Джеймс Мэнголд
Продюсер: Джон Бернард, Dani Bernfeld, Питер Чернин

Актеры
Кристиан Бэйл, Мэтт Дэймон, Катрина Балф, Трэйси Леттс, Джон Бернтал, Ноа Джуп, Джош Лукас, Ремо Джироне, Рэй МакКиннон, Джей Джей Филд

Описание

В начале 1960-х Генри Форд II принимает решение улучшить имидж компании и сменить курс на производство более модных автомобилей. После неудавшейся попытки купить практически банкрота Ferrari американцы решают бросить вызов итальянским конкурентам на трассе и выиграть престижную гонку 24 часа Ле-Мана. Чтобы создать подходящую машину, компания нанимает автоконструктора Кэррола Шэлби, а тот отказывается работать без выдающегося, но, как считается, трудного в общении гонщика Кена Майлза. Вместе они принимаются за разработку впоследствии знаменитого спорткара Ford GT40.


Возраст: 16+ (зрителям, достигшим 16 лет)
Рейтинг MPAA: PG-13 (детям до 13 лет просмотр нежелателен)
Дата мировой премьеры: 30 августа 2019
Дата российской премьеры: 14 ноября 2019, Двадцатый Век Фокс СНГ

Продолжительность: 02: 32: 25
Качество видео: DVD9
Перевод: Дублированный (iTunes), профессиональный многоголосый, авторский одноголосый
Субтитры: Русские, английские
Доп. материалы: Отсутствуют
Видео: MPEG-2, 720x480@853x480 (NTSC 16: 9), ~5200 Kbps
Аудио 1: AC3 5.1, 448 Kbps (Английский - оригинал)
Аудио 2: AC3 5.1, 448 Kbps (Русский, авторский - Михаил Яроцкий)
Аудио 3: AC3 5.1, 448 Kbps (Русский, многоголосый - HDRezka Studio)
Аудио 4: AC3 5.1, 384 Kbps (Русский, дублированный)Title: Ford v Ferrari (2019) DVD9 NTSC
Size: 7.35 Gb ( 7 708 660, 00 KBytes ) - DVD-9
Enabled regions: 1, 2, 3, 4, 5, 6, 7, 8
VTS_01 :
Play Length: 00: 00: 00+00: 00: 01+00: 00: 01+00: 00: 01+{00: 00: 00}+{00: 00: 00}+{00: 00: 00}+00: 00: 05+00: 00: 01+{00: 00: 00}+00: 00: 00+00: 00: 00+00: 00: 01
Video: NTSC 16: 9 (720x480) VBR, Auto Letterboxed
VTS_02 :
Play Length: 00: 00: 11+00: 00: 00
Video: NTSC 16: 9 (720x480) VBR, Auto Letterboxed
Audio:
English (Dolby AC3, 6 ch)
VTS_03 :
Play Length: 00: 00: 00+{00: 00: 00}+{00: 00: 00}
Video: NTSC 16: 9 (720x480) VBR, Auto Letterboxed
VTS_04 :
Play Length: 00: 00: 00+{00: 00: 00}+{00: 00: 00}+{00: 00: 00}+00: 00: 00+{00: 00: 00}+{00: 00: 00}+{00: 00: 00}
Video: NTSC 16: 9 (720x480) VBR, Auto Letterboxed
VTS_05 :
Play Length: 00: 00: 00+{00: 00: 00}+{00: 00: 00}+{00: 00: 00}+{00: 00: 00}+{00: 00: 00}+{00: 00: 00}
Video: NTSC 16: 9 (720x480) VBR, Auto Letterboxed
VTS_06 :
Play Length: 00: 00: 00+{00: 00: 00}+{00: 00: 00}+{00: 00: 00}+{00: 00: 00}+{00: 00: 00}+{00: 00: 00}+{00: 00: 00}+{00: 00: 00}+{00: 00: 00}+{00: 00: 00}+{00: 00: 00}+{00: 00: 00}+{00: 00: 00}+{00: 00: 00}+{00: 00: 00}+{00: 00: 00}+{00: 00: 00}
Video: NTSC 16: 9 (720x480) VBR, Auto Letterboxed
VTS_07 :
Play Length: 00: 00: 00+02: 32: 25
Video: NTSC 16: 9 (720x480) VBR, Auto Letterboxed
Audio:
English, AC3, 3/2 (L, C, R, SL, SR)+LFE ch, 448 kbps, Delay 0 mSec
Russian, AC3, 3/2 (L, C, R, SL, SR)+LFE ch, 448 kbps, Delay 0 mSec
Russian, AC3, 3/2 (L, C, R, SL, SR)+LFE ch, 448 kbps, Delay 0 mSec
Russian, AC3, 3/2 (L, C, R, SL, SR)+LFE ch, 384 kbps, Delay 0 mSec
Subtitles:
English
Russian
Russian
VTS_08 :
Play Length: 00: 00: 00+{00: 00: 00}
Video: NTSC 16: 9 (720x480) VBR, Auto Letterboxed
VTS_09 :
Play Length: 00: 00: 00+{00: 00: 00}+{00: 00: 00}+{00: 00: 00}+{00: 00: 00}+{00: 00: 00}+{00: 00: 00}+{00: 00: 00}+{00: 00: 00}
Video: NTSC 16: 9 (720x480) VBR, Auto Letterboxed
VTS_10 :
Play Length: 00: 00: 00+{00: 00: 00}+{00: 00: 00}+{00: 00: 00}+{00: 00: 00}+{00: 00: 00}+{00: 00: 00}+{00: 00: 00}
Video: NTSC 16: 9 (720x480) VBR, Auto Letterboxed
VTS_11 :
Play Length: 00: 00: 00+{00: 00: 00}+{00: 00: 00}+{00: 00: 00}+{00: 00: 00}+{00: 00: 00}+{00: 00: 00}+{00: 00: 00}
Video: NTSC 16: 9 (720x480) VBR, Auto Letterboxed
VTS_12 :
Play Length: 00: 00: 00+{00: 00: 00}+{00: 00: 00}+{00: 00: 00}+{00: 00: 00}+{00: 00: 00}
Video: NTSC 16: 9 (720x480) VBR, Auto Letterboxed
VTS_13 :
Play Length: 00: 00: 00+{00: 00: 00}+{00: 00: 00}+{00: 00: 00}
Video: NTSC 16: 9 (720x480) VBR, Auto LetterboxedОбщее
Полное имя : D: TorrentsFord v Ferrari (2019) DVD9 NTSCVIDEO_TSVTS_07_3.VOB
Формат : MPEG-PS
Размер файла : 1 024 Мбайт
Продолжительность : 20 м. 11 с.
Режим общего битрейта : Переменный
Общий поток : 7 090 Кбит/сек
Видео
Идентификатор : 224 (0xE0)
Формат : MPEG Video
Версия формата : Version 2
Профиль формата : Main@Main
Настройки формата : CustomMatrix/BVOP
Параметр BVOP формата : Да
Параметр матрицы формата : Выборочная
Параметр GOP формата : Variable
Продолжительность : 20 м. 11 с.
Вид битрейта : Переменный
Битрейт : 5 221 Кбит/сек
Максимальный битрейт : 9 800 Кбит/сек
Ширина : 720 пикселей
Высота : 480 пикселей
Соотношение сторон : 16: 9
Частота кадров : 23, 976 (24000/1001) кадра/сек
Цветовое пространство : YUV
Субдискретизация насыщенности : 4: 2: 0
Битовая глубина : 8 бит
Тип развёртки : Прогрессивная
Порядок развёртки : 2: 3 Pulldown
Метод сжатия : С потерями
Бит/(Пиксели*Кадры) : 0.630
Временной код первого кадра : 00: 42: 16;02
Оригинал временного кода : Group of pictures t_head
Размер потока : 754 Мбайт (74%)
Аудио #1
Идентификатор : 189 (0xBD)-128 (0x80)
Формат : AC-3
Формат/Информация : Audio Coding 3
Коммерческое название : Dolby Digital
Режим смешивания : DVD-Video
Продолжительность : 20 м. 11 с.
Вид битрейта : Постоянный
Битрейт : 448 Кбит/сек
Каналы : 6 каналов
Channel layout : L R C LFE Ls Rs
Частота : 48, 0 КГц
Частота кадров : 31, 250 кадров/сек (1536 SPF)
Метод сжатия : С потерями
Задержка видео : -411 мс.
Размер потока : 64, 7 Мбайт (6%)
Service kind : Complete Main
Аудио #2
Идентификатор : 189 (0xBD)-129 (0x81)
Формат : AC-3
Формат/Информация : Audio Coding 3
Коммерческое название : Dolby Digital
Режим смешивания : DVD-Video
Продолжительность : 20 м. 11 с.
Вид битрейта : Постоянный
Битрейт : 448 Кбит/сек
Каналы : 6 каналов
Channel layout : L R C LFE Ls Rs
Частота : 48, 0 КГц
Частота кадров : 31, 250 кадров/сек (1536 SPF)
Метод сжатия : С потерями
Задержка видео : -443 мс.
Размер потока : 64, 7 Мбайт (6%)
Service kind : Complete Main
Аудио #3
Идентификатор : 189 (0xBD)-130 (0x82)
Формат : AC-3
Формат/Информация : Audio Coding 3
Коммерческое название : Dolby Digital
Режим смешивания : DVD-Video
Продолжительность : 20 м. 11 с.
Вид битрейта : Постоянный
Битрейт : 448 Кбит/сек
Каналы : 6 каналов
Channel layout : L R C LFE Ls Rs
Частота : 48, 0 КГц
Частота кадров : 31, 250 кадров/сек (1536 SPF)
Метод сжатия : С потерями
Задержка видео : -443 мс.
Размер потока : 64, 7 Мбайт (6%)
Service kind : Complete Main
Аудио #4
Идентификатор : 189 (0xBD)-131 (0x83)
Формат : AC-3
Формат/Информация : Audio Coding 3
Коммерческое название : Dolby Digital
Режим смешивания : DVD-Video
Продолжительность : 20 м. 11 с.
Вид битрейта : Постоянный
Битрейт : 384 Кбит/сек
Каналы : 6 каналов
Channel layout : L R C LFE Ls Rs
Частота : 48, 0 КГц
Частота кадров : 31, 250 кадров/сек (1536 SPF)
Метод сжатия : С потерями
Задержка видео : -443 мс.
Размер потока : 55, 5 Мбайт (5%)
Service kind : Complete Main
Текст #1
Идентификатор : 189 (0xBD)-32 (0x20)
Формат : RLE
Формат/Информация : Run-length encoding
Режим смешивания : DVD-Video
Продолжительность : 20 м. 9 с.
Задержка видео : 884 мс.
Текст #2
Идентификатор : 189 (0xBD)-33 (0x21)
Формат : RLE
Формат/Информация : Run-length encoding
Режим смешивания : DVD-Video
Продолжительность : 20 м. 5 с.
Задержка видео : 217 мс.
Текст #3
Идентификатор : 224 (0xE0)-CC3
Формат : EIA-608
Режим смешивания, доп. информация : Muxed in Video #1
Продолжительность : 20 м. 11 с.
Вид битрейта : Постоянный
Размер потока : 0, 00 байт (0%)
CaptionServiceName : CC3
Меню
 
Уважаемый посетитель, Вы зашли на сайт как незарегистрированный пользователь. Мы рекомендуем Вам зарегистрироваться либо зайти на сайт под своим именем.

Другие новости по теме:

  • Ford против Ferrari / Ford v Ferrari (2019) WEBRip [Line, AD]
  • Ford против Ferrari / Ford v Ferrari (2019) WEBRip [H.264 / 1080p-LQ] [Line, AD]
  • Ford против Ferrari / Ford v Ferrari (2019) WEBRip [H.264] [Line, AD]
  • Ford против Ferrari / Ford v Ferrari (2019) WEBRip [H.264 / 720p-LQ] [Line, AD]
  • Ford против Ferrari / Ford v Ferrari (2019) WEBRip [EN / RU, EN Sub]
  • Ford против Ferrari / Ford v Ferrari (2019) WEBRip [UKR] [Line]
  • Ford против Ferrari / Ford v Ferrari (2019) WEBRip [H.264] [UKR] [Line]
  • Ford против Ferrari / Ford v Ferrari (2019) WEBRip [H.264] [EN / RU, EN Sub]


  • Информация
    Посетители, находящиеся в группе Гости, не могут оставлять комментарии в данной новости.
    Главная страница | Регистрация | Добавить новость | Новое на сайте Copyright © 2019. bolt.mmix.club All Rights Reserved