Подписывайся на наш канал в Telegram https://t.me/torrentok и получи доступ к торрентам без ограничений!
. bolt.mmix.club
Авторские права
con...@...Показать
Вход на сайт
Логин:
Пароль:
 
Навигация по сайту
Популярные статьи

Торрент трекер | Скачать торрент | Скачать через Торрент | Скачать торрент бесплатно | Скачать торрент без регистрации Фильмы торрент скачать Хекимоглу / Hekimoglu (2019) HDTVRip [H.264 / 720p-LQ] (сезон 1, серии 1-14 из 14) SesDizi, AimaksaL.TV, Turkey [PR] торрент скачать бесплатно

Хекимоглу / Hekimoglu (2019) HDTVRip [H.264 / 720p-LQ] (сезон 1, серии 1-14 из 14) SesDizi, AimaksaL.TV, Turkey [PR] торрент скачать бесплатно

Фильмы торрент скачать
Хекимоглу / Hekimoglu (2019) HDTVRip [H.264 / 720p-LQ] (сезон 1, серии 1-14 из 14) SesDizi, AimaksaL.TV, Turkey [PR]Производство: Турция/Karga Seven Pictures
Жанр: драма, комедия, детектив
Режиссер: Хюлья Гезер

Актеры
Тимучин Эсен, Окан Ялабык, Эбру Озкан, Каан Йылдырым, Айтач Шашмаз, Дамла Джолбай, Дениз Барут, Аднан Басар и др.

Описание

Ремейк американского сериала Доктор Хаус. Сериал повествует о выдающемся враче-диагносте Атеше Хекимоглу и его команде. В клинике доктор Хекимоглу работает в эксцентричной и остроумной манере, часто его пациенты оказываются под мишенью его саркастических замечаний, впоследствии подают на него жалобу. Но Доктор Хекимоглу врач от Бога, он удивляет всех предлагая нетрадиционные методы лечения и успешно осуществляя их. Каждое новое сложное дело провокационно и увлекательно, как головоломка, ожидающая своего решения.


Продолжительность: ~02: 00: 00 серия
Качество видео: HDTV
Перевод: Одноголосый любительский (SesDizi, AimaksaL.TV, Turkey)
Видео: AVC/H.264, 1280x720 (16: 9), ~1460 kbps
Аудио: AAC, 2 ch, 128 kbps
General
Unique ID : 216254402273035396937571793915670504644 (0xA2B115388FEA47AE7D47D9E263C924C4)
Complete name : J: Hekimoglu.s01.HDTV720pHekimoglu.s01.e05.HDTV720p.mkv
Format : Matroska
Format version : Version 4
File size : 1.42 GiB
Duration : 2 h 7 min
Overall bit rate : 1 590 kb/s
Encoded date : UTC 2020-08-22 23: 51: 55
Writing application : mkvmerge v47.0.0 (\'Black Flag\') 64-bit
Writing library : libebml v1.3.10 + libmatroska v1.5.2
Video
ID : 1
Format : AVC
Format/Info : Advanced Video Codec
Format profile : Baseline@L3.1
Format settings : 1 Ref Frames
Format settings, CABAC : No
Format settings, Reference fra : 1 frame
Format settings, GOP : M=1, N=25
Codec ID : V_MPEG4/ISO/AVC
Duration : 2 h 7 min
Bit rate : 1 459 kb/s
Width : 1 280 pixels
Height : 720 pixels
Display aspect ratio : 16: 9
Frame rate mode : Constant
Frame rate : 30.000 FPS
Color space : YUV
Chroma subsampling : 4: 2: 0
Bit depth : 8 bits
Scan type : Progressive
Bits/(Pixel*Frame) : 0.053
Stream size : 1.30 GiB (92%)
Default : Yes
Forced : No
Audio
ID : 2
Format : AAC LC
Format/Info : Advanced Audio Codec Low Complexity
Codec ID : A_AAC-2
Duration : 2 h 7 min
Bit rate : 128 kb/s
Channel(s) : 2 channels
Channel layout : L R
Sampling rate : 48.0 kHz
Frame rate : 46.875 FPS (1024 SPF)
Compression mode : Lossy
Delay relative to video : 14 ms
Stream size : 117 MiB (8%)
Default : Yes
Forced : No

Скриншоты для ознакомления



Все одноименные релизы в Клубе
Время раздачи: с 11: 00 до 3: 00 (до появления первых 3-5 скачавших)
 
Уважаемый посетитель, Вы зашли на сайт как незарегистрированный пользователь. Мы рекомендуем Вам зарегистрироваться либо зайти на сайт под своим именем.

Другие новости по теме:



Информация
Посетители, находящиеся в группе Гости, не могут оставлять комментарии в данной новости.
Главная страница | Регистрация | Добавить новость | Новое на сайте Copyright © 2019. bolt.mmix.club All Rights Reserved