Подписывайся на наш канал в Telegram https://t.me/torrentok и получи доступ к торрентам без ограничений!
. bolt.mmix.club
Авторские права
con...@...Показать
Вход на сайт
Логин:
Пароль:
 
Навигация по сайту
Популярные статьи

Торрент трекер | Скачать торрент | Скачать через Торрент | Скачать торрент бесплатно | Скачать торрент без регистрации Фильмы торрент скачать Человек-паук 3: Враг в отражении / Spider-Man 3 (2007) WEB-DL [H.264 / 1080p-LQ] [Open Matte] торрент скачать бесплатно

Человек-паук 3: Враг в отражении / Spider-Man 3 (2007) WEB-DL [H.264 / 1080p-LQ] [Open Matte] торрент скачать бесплатно

Фильмы торрент скачать
Человек-паук 3: Враг в отражении / Spider-Man 3 (2007) WEB-DL [H.264 / 1080p-LQ] [Open Matte]Производство: США/Columbia Pictures, Marvel Studios, Laura Ziskin Productions
Жанр: фантастика, боевик, приключения
Режиссер: Сэм Рэйми

Актеры
Тоби Магуайр, Кирстен Данст, Джеймс Франко, Томас Хейден Чёрч, Тофер Грейс, Брайс Даллас Ховард, Розмари Харрис, Дж.К. Симмонс, Джеймс Кромуэлл, Илья Баскин

Описание

Прошло пять лет с тех пор, как Питер осознал, что с Великой силой приходит Великая ответственность!, и три года с тех пор, как он отказался быть борцом за справедливость. Но сейчас кажется, Питер прекрасно научился жить несколькими жизнями. Он хорошо учится, Нью-Йорк признал его героем, отношения с Мэри Джейн прочные. Питер даже намеревается сделать ей предложение!
Но к сожалению, его лучший друг Гарри Озборн по-прежнему считает, что именно Человек-паук несет ответственность за безвременную кончину его отца. Гарри намеревается отомстить ему в образе Нового Гоблина. В то же самое время на криминальной сцене Нью-Йорка появляется другой могущественный суперзлодей, известный как Песочный Человек.
Когда Человек-паук надевает таинственный черный костюм, его темная, более мстительная сторона полностью поглощает его. Эти трансформации заставляют его встретиться с самым сильным противником ― с самим собой…


Возраст: 12+ (зрителям, достигшим 12 лет)
Рейтинг MPAA: PG-13 (детям до 13 лет просмотр нежелателен)
Продолжительность: 02: 19: 12
Качество видео: WEB-DL
Перевод: Дублированный, авторский
Субтитры: русские, английские
Видео: AVC/H.264, 1920x1080, 23, 976 fps, ~5850 Kbps
Аудио 1: AC3, 6 ch, 640 kbps - Русский (DUB)
Аудио 2: DTS, 6 ch, 1510 kbps - Русский (AVO Королев)
Аудио 3: DTS, 6 ch, 1510 kbps - Русский (AVO Гаврилов)
Аудио 4: DTS, 6 ch, 1510 kbps - Английский
Аудио 5: AAC LC, 2 ch, 64 kbps - Английский (Оригинал, HULU)
General
Unique ID : 234176434546851225825306002839909428169 (0xB02CBDA2357C6385A91BB64ACBF3EBC9)
Complete name : D: Spider-Man.3.2007.Open.Matte.1080p.WEB-DL.H.264.3xRus.2xEng.mkv
Format : Matroska
Format version : Version 4
File size : 10.8 GiB
Duration : 2 h 19 min
Overall bit rate : 11.1 Mb/s
Encoded date : UTC 2020-08-23 00: 28: 23
Writing application : mkvmerge v7.9.0 (\'Birds\') 64bit
Writing library : libebml v1.3.1 + libmatroska v1.4.2
Video
ID : 1
Format : AVC
Format/Info : Advanced Video Codec
Format profile : High@L4
Format settings : CABAC/4 Ref Frames
Format settings, CABAC : Yes
Format settings, Reference frames : 4 frames
Codec ID : V_MPEG4/ISO/AVC
Duration : 2 h 19 min
Bit rate : 5 850 kb/s
Width : 1 920 pixels
Height : 1 080 pixels
Display aspect ratio : 16: 9
Frame rate mode : Constant
Frame rate : 23.976 (24000/1001) FPS
Color space : YUV
Chroma subsampling : 4: 2: 0
Bit depth : 8 bits
Scan type : Progressive
Bits/(Pixel*Frame) : 0.118
Stream size : 5.69 GiB (53%)
Default : Yes
Forced : No
Audio #1
ID : 2
Format : AC-3
Format/Info : Audio Coding 3
Commercial name : Dolby Digital
Codec ID : A_AC3
Duration : 2 h 19 min
Bit rate mode : Constant
Bit rate : 640 kb/s
Channel(s) : 6 channels
Channel layout : L R C LFE Ls Rs
Sampling rate : 48.0 kHz
Frame rate : 31.250 FPS (1536 SPF)
Compression mode : Lossy
Stream size : 637 MiB (6%)
Title : Дубляж
Language : Russian
Service kind : Complete Main
Default : Yes
Forced : No
Audio #2
ID : 3
Format : DTS
Format/Info : Digital Theater Systems
Codec ID : A_DTS
Duration : 2 h 19 min
Bit rate mode : Constant
Bit rate : 1 510 kb/s
Channel(s) : 6 channels
Channel layout : C L R Ls Rs LFE
Sampling rate : 48.0 kHz
Frame rate : 93.750 FPS (512 SPF)
Bit depth : 24 bits
Compression mode : Lossy
Stream size : 1.47 GiB (14%)
Title : Королёв
Language : Russian
Default : No
Forced : No
Audio #3
ID : 4
Format : DTS
Format/Info : Digital Theater Systems
Codec ID : A_DTS
Duration : 2 h 19 min
Bit rate mode : Constant
Bit rate : 1 509 kb/s
Channel(s) : 6 channels
Channel layout : C L R Ls Rs LFE
Sampling rate : 48.0 kHz
Frame rate : 93.750 FPS (512 SPF)
Bit depth : 24 bits
Compression mode : Lossy
Stream size : 1.47 GiB (14%)
Title : Гаврилов
Language : Russian
Default : No
Forced : No
Audio #4
ID : 5
Format : DTS
Format/Info : Digital Theater Systems
Codec ID : A_DTS
Duration : 2 h 19 min
Bit rate mode : Constant
Bit rate : 1 509 kb/s
Channel(s) : 6 channels
Channel layout : C L R Ls Rs LFE
Sampling rate : 48.0 kHz
Frame rate : 93.750 FPS (512 SPF)
Bit depth : 24 bits
Compression mode : Lossy
Stream size : 1.47 GiB (14%)
Title : Blu-ray
Language : English
Default : No
Forced : No
Audio #5
ID : 6
Format : AAC LC SBR
Format/Info : Advanced Audio Codec Low Complexity with Spectral Band Replication
Commercial name : HE-AAC
Format settings : Explicit
Codec ID : A_AAC-2
Duration : 2 h 19 min
Bit rate : 64.0 kb/s
Channel(s) : 2 channels
Channel layout : L R
Sampling rate : 48.0 kHz
Frame rate : 23.438 FPS (2048 SPF)
Compression mode : Lossy
Stream size : 63.7 MiB (1%)
Title : HULU
Language : English
Default : No
Forced : No
Text #1
ID : 7
Format : UTF-8
Codec ID : S_TEXT/UTF8
Codec ID/Info : UTF-8 Plain Text
Duration : 2 h 18 min
Bit rate : 1 b/s
Count of elements : 35
Stream size : 1.63 KiB (0%)
Title : forced
Language : Russian
Default : Yes
Forced : No
Text #2
ID : 8
Format : UTF-8
Codec ID : S_TEXT/UTF8
Codec ID/Info : UTF-8 Plain Text
Duration : 2 h 8 min
Bit rate : 61 b/s
Count of elements : 1144
Stream size : 57.8 KiB (0%)
Title : full
Language : Russian
Default : No
Forced : No
Text #3
ID : 9
Format : UTF-8
Codec ID : S_TEXT/UTF8
Codec ID/Info : UTF-8 Plain Text
Duration : 2 h 15 min
Bit rate : 36 b/s
Count of elements : 1149
Stream size : 35.9 KiB (0%)
Language : English
Default : No
Forced : No
Menu
00: 00: 00.000 : en: Main Titles
00: 07: 59.813 : en: The Goblin\'s Lair
00: 16: 55.056 : en: Peter vs. Harry
00: 24: 44.983 : en: Some Memory Impairment
00: 30: 12.686 : en: The Review
00: 40: 08.531 : en: Welcome Home Harry!
00: 49: 24.587 : en: Armored Car
00: 59: 27.773 : en: We Were Wrong
01: 06: 34.574 : en: Bank Robbery
01: 15: 23.436 : en: Calling A Woman
01: 22: 16.723 : en: It\'s Over
01: 30: 17.829 : en: Dirt In Your Eye
01: 40: 46.374 : en: The Bell Tower
01: 49: 10.836 : en: City In Crisis
01: 59: 57.148 : en: Film\'s Extra
02: 06: 11.355 : en: I Didn\'t Want This
 
Уважаемый посетитель, Вы зашли на сайт как незарегистрированный пользователь. Мы рекомендуем Вам зарегистрироваться либо зайти на сайт под своим именем.

Другие новости по теме:

  • Человек-паук 3: Враг в отражении / Spider-Man 3 (2007) WEB-DL [H.264 / 2160p] скачать через торрент бесплатно
  • Человек-паук 3: Враг в отражении / Spider-Man 3 (2007) BDRip [H.265 / 1080p-LQ]
  • Человек-паук 3: Враг в отражении / Spider-Man 3 (2007) UHD Blu-ray [H.265 / 2160p] [4K, HDR, 10-bit]
  • Человек-паук 3: Враг в отражении / Spider-Man 3 (2007) HDRip [H.264] [MP4|1280x534]
  • Человек-паук 3: Враг в отражении / Spider-Man 3 (2007) HDRip [H.264] [MP4|1920x800]
  • Джим Берд | Человек-Паук: Заклятый враг (2019) [FB2]
  • Человек-паук 3: Враг в отражении / Spider-Man 3 (2007) BDRip [H.265 / 1080p] [10-bit]
  • Человек-паук 3: Враг в отражении / Spider-Man 3 (2007) HDTV [H.264 / 1080i-LQ] [Open Matte]


  • Информация
    Посетители, находящиеся в группе Гости, не могут оставлять комментарии в данной новости.
    Главная страница | Регистрация | Добавить новость | Новое на сайте Copyright © 2019. bolt.mmix.club All Rights Reserved